Welcome Guest ( Log In | Register )

Объявления

* gmail.com упорно продолжает считать почту с нас "unsolicited" и отбивает в том числе и письма активации, поэтому просьба использовать альтернативные почтовые ящики.
------------
* gmail.com continues reject all mail from us as "unsolicited" (activation mails too) therefore please use alternate mail servers.
> Trailight - Sophia (2020), Progressive Metal
post Oct 30 2022, 21:38:55
Post #1

21st Century Schizoid Man
**************
Group: Металариец
Posts: 8,450
Releases: 318
From: 1984
On Forums: 16 years 3 weeks
Thanks: 9408 time(s)
Unknown


(IMG:https://metalarea.org/images/audiocovers/2022_Oct/acov_tid371482_thumb.jpg)

*Artist: Trailight
*Album: Sophia
*Year: 2020
*Genre: Progressive Metal
*Country: Canada (IMG:https://metalarea.org/forum/style_images/flags/Canada.png)
*Format: mp3@CBR320kbps
*Size: 98MB

Tracklist:
01. Eon 01:37
02. Aftershock 05:38
03. Truth 04:48
04. The Three Waves 04:33
05. Sleepwalkers 07:08
06. Island 03:59
07. Up in the Air 04:34
08. Dance 03:12
09. Birth 06:42
******************************
Total playing time: 42:11


(IMG:https://metalarea.org/images/youtube.png)

Extended info
Omer Cordell - Bass, Drums, Percussion, Vocals, Guitars, Keys
Dave Padden - Additional guitars
Cory McBain - Lead guitar (2)
Scott Heatley - Lead guitar (5)
Conan Freeman - Voice (1)
Cody Callon, Nicole Haworth, Meris Williams, Charity Champagne - Gang vocals (7)
Meris Williams, Andrea Rayburn - Backing vocals (8)


Technical info
(IMG:https://metalarea.org/images/spectrogram/2022_Oct/d2316f3a0b9c776d6850c8580cbc55f2.png)
Input File: 02. Aftershock.mp3
Channels : 2
Sample Rate : 44100
Precision : 16-bit
Duration : 00:05:38.10 = 14910122 samples = 25357.4 CDDA sectors
File Size : 13.6M
Bit Rate : 323k
Sample Encoding: MPEG audio (layer I, II or III)
Comments :
Title=Aftershock
Artist=Trailight
Album=Sophia
Tracknumber=2
Year=2020
Genre=Progressive Metal



Register


Go to the top of the page
  Insert nick Quick quote
+Quote Post
 
Start new topic
Replies (1 - 1)
post Nov 1 2022, 13:09:34
Post #2

Восемь Литров
********
Group: Металариец
Posts: 875
Releases: 0
On Forums: 17 years 5 months
Thanks: 123 time(s)
Russian Federation


Очень напомнил альбом Paradise Lost "Icon", такое же меланхолическое настроение создает. Надо ознакомиться с творчеством группы подробнее.


Thanks:
(1) Yarri,
Go to the top of the page
  Insert nick Quick quote
+Quote Post

Reply to this topicStart new topic
2 User(s) are reading this topic (2 Guests and 0 Anonymous Users)
0 Members:

 



- Lo-Fi Version Support form
Copyrights and abuse reports form
Time is now: 29th May 2024 - 09:01:01