Welcome Guest ( Log In | Register )

Объявления

* gmail.com упорно продолжает считать почту с нас "unsolicited" и отбивает в том числе и письма активации, поэтому просьба использовать альтернативные почтовые ящики.
------------
* gmail.com continues reject all mail from us as "unsolicited" (activation mails too) therefore please use alternate mail servers.
 
Reply to this topicStart new topic
> Time's Forgotten - Shelter (2022), Progressive Metal
post Nov 2 2022, 13:42:25
Post #1

21st Century Schizoid Man
**************
Group: Металариец
Posts: 8,555
Releases: 356
From: 1984
On Forums: 16 years 2 months
Thanks: 9786 time(s)
Unknown


(IMG:https://metalarea.org/images/audiocovers/2022_Nov/acov_tid371597_thumb.jpg)

*Artist: Time's Forgotten
*Album: Shelter
*Year: 2022
*Genre: Progressive Metal
*Country: Costa Rica (IMG:https://metalarea.org/forum/style_images/flags/Costa%20Rica.png)
*Format: mp3@CBR320kbps
*Size: 119MB

Tracklist:
01. New Dawn (Prologue) 01:39
02. City 06:23
03. Cycle #248 05:14
04. Defiant 05:39
05. Accident of Evolution 04:10
06. Waking Up (Interlude) 01:19
07. Ascension 07:42
08. Outsider 06:05
09. Moments of Clarity 05:42
10. The Road Home 05:55
11. Sleepless (Ending Credits) 01:47
******************************
Total playing time: 51:35


(IMG:https://metalarea.org/images/youtube.png)
(IMG:https://metalarea.org/images/youtube.png)
(IMG:https://metalarea.org/images/youtube.png)
(IMG:https://metalarea.org/images/youtube.png)

Extended info
Jorge Sobrado - Drums, Programming
Ari Lotringer - Guitars (lead), Vocals (backing)
Juan Pablo Calvo - Keyboards, Programming
Gonzalo "Chalo" Trejos - Bass
Priscilla Ruiz - Vocals


Technical info
(IMG:https://metalarea.org/images/spectrogram/2022_Nov/e5bfbf515011bc7912793e756b562236.png)
Input File: 02. City.mp3
Channels : 2
Sample Rate : 44100
Precision : 16-bit
Duration : 00:06:23.27 = 16902031 samples = 28745 CDDA sectors
File Size : 15.3M
Bit Rate : 320k
Sample Encoding: MPEG audio (layer I, II or III)
Comments :
Title=City
Artist=Time's Forgotten
Album=Shelter
Tracknumber=2
Year=2022
Genre=Progressive Metal



Register


Go to the top of the page
  Insert nick Quick quote
+Quote Post

Reply to this topicStart new topic
1 User(s) are reading this topic (1 Guests and 0 Anonymous Users)
0 Members:

 



- Lo-Fi Version Support form
Copyrights and abuse reports form
Time is now: 22nd July 2024 - 09:15:08