Welcome Guest ( Log In | Register )

> Toxik - Kinetic Closure (2020), Technical Speed/Thrash Metal (D10)
post Nov 3 2022, 07:13:33
Post #1

Join my religion, or die
**************
Group: Металариец
Posts: 11,335
Releases: 1956
From: Питера
On Forums: 14 years 6 months
Thanks: 25916 time(s)
Russian Federation


(IMG:https://metalarea.org/images/audiocovers/2022_Nov/acov_tid371644_thumb.jpg)

*Artist: Toxik
*Album: Kinetic Closure
*Year: 2020
*Genre: Technical Speed/Thrash Metal
*Country: United States (IMG:https://metalarea.org/forum/style_images/flags/United%20States.png)
*Format: mp3@CBR320kbps
*Size: 95MB

Tracklist:
01. Kinetic Closure 03:45
02. Spontaneous 04:49
03. Heart Attack 03:40
04. Greed 04:18
05. False Prophets 02:17
06. Think This 04:55
07. Social Overload 03:55
08. Shotgun Logic 05:40
09. World Circus 04:37
10. No Rest for the Wicked 03:38
******************************
Total playing time: 41:34

Preview 1

Extended info
Альбом записан в 2018 году. Сыгран вживую в студии практически без обработки и с первого дубля



Technical info
(IMG:https://metalarea.org/images/spectrogram/2022_Nov/b4fe5bf25bb77e945eeca74623eaccf9.png)
Input File: 02 Spontaneous.mp3
Channels : 2
Sample Rate : 44100
Precision : 16-bit
Duration : 00:04:49.35 = 12760379 samples = 21701.3 CDDA sectors
File Size : 11.8M
Bit Rate : 326k
Sample Encoding: MPEG audio (layer I, II or III)
Comments :
Title=Spontaneous
Artist=Toxik
Album=2020 Kinetic Closure
Tracknumber=02/10
Year=2020
Genre=Thrash Metal



Register


Go to the top of the page
  Insert nick Quick quote
+Quote Post
 
Start new topic
Replies (1 - 4)
post Nov 4 2022, 19:46:35
Post #2

Шесть Литров
******
Group: Металариец
Posts: 591
Releases: 3
From: Санкт-Петербург
On Forums: 16 years 6 months
Thanks: 197 time(s)
Russian Federation


Этот тоже, кажется, полностью отсюда:
Toxik - III Works [compilation] (2018)


Thanks:
Go to the top of the page
  Insert nick Quick quote
+Quote Post
post Nov 4 2022, 20:19:05
Post #3

Правь статус, ####!111
**************
Group: Металариец
Posts: 35,557
Releases: 26468
From: Г.Харьков
On Forums: 11 years 11 months
Thanks: 572096 time(s)
Ukraine


ЦИТАТА(grinderrr @ Nov 4 2022, 19:46:35) *
Этот тоже, кажется, полностью отсюда:
Toxik - III Works [compilation] (2018)

потому как это сборник старых песен,а слак указал как полный (IMG:style_emoticons/default/bye.gif)
Go to the top of the page
  Insert nick Quick quote
+Quote Post
post Nov 4 2022, 23:31:44
Post #4

Шесть Литров
******
Group: Металариец
Posts: 591
Releases: 3
From: Санкт-Петербург
On Forums: 16 years 6 months
Thanks: 197 time(s)
Russian Federation


ЦИТАТА(Samaritianin @ Nov 4 2022, 22:19:05) *
потому как это сборник старых песен,а слак указал как полный (IMG:style_emoticons/default/bye.gif)


Да я не против, чтобы он указал.
И не против, чтобы ты указал.
Только я тоже указываю, что этот "полный" альбом, выпущенный отдельно в 20-ом уже полностью входил в полный сборник в том же полном виде, выпущенный в 18-ом.


Thanks:
Go to the top of the page
  Insert nick Quick quote
+Quote Post
post Jul 22 2023, 02:11:47
Post #5

Правь статус, ####!111
**************
Group: Металариец
Posts: 3,270
Releases: 0
On Forums: 15 years 2 months
Thanks: 1621 time(s)
South Korea


Yes, it is included in the 'III Works' compilation!

Nevertheless, if anyone wants it separately,....

1. From slack's own site:
Register

Thanks to slack!

2. Preview or purchase:

[All credits go to the band and the posters].
Go to the top of the page
  Insert nick Quick quote
+Quote Post

Reply to this topicStart new topic
1 User(s) are reading this topic (1 Guests and 0 Anonymous Users)
0 Members:

 



- Lo-Fi Version Support form
Copyrights and abuse reports form
Time is now: 16th April 2024 - 02:23:31