Welcome Guest ( Log In | Register )

> Count Vornok & Gate Master - The Codex Astrarium/The Rite Of Passage [split] (2022), Symphonic Black/Doom Metal | Dungeon Synth/Symphonic Black Metal
post Nov 4 2022, 18:24:24
Post #1

Правь статус, ####!111
**************
Group: Металариец
Posts: 5,928
Releases: 5430
From: Одесса
On Forums: 14 years 7 months
Thanks: 63529 time(s)
Ukraine


(IMG:http://metalarea.org/images/audiocovers/2022_Nov/acov_tid371777_thumb.png)

*Artist: Count Vornok & Gate Master
*Album: The Codex Astrarium/The Rite Of Passage [split]
*Year: 2022
*Genre: Symphonic Black/Doom Metal | Dungeon Synth/Symphonic Black Metal
*Country: United Kingdom (IMG:http://metalarea.org/forum/style_images/flags/United%20Kingdom.png) | United Kingdom (IMG:http://metalarea.org/forum/style_images/flags/United%20Kingdom.png)
*Format: mp3@CBR320kbps
*Size: 86MB

Tracklist:
Count Vornok:
1. Constellation Draconis 06:03
2. Constellation Tenebris 06:05
3. Constellation Lunaris 04:59
Gate Master:
4. A Sacred Poem for the Unholy 05:40
5. The Unfathomable Pilgrimage 06:35
6. Wandering (Forever...in Eternity...) 06:25
******************************
Total playing time: 35:47



Technical info
(IMG:http://metalarea.org/images/spectrogram/2022_Nov/9c654f19ee59c57b32ac163f20b7bf13.png)
Input File: 04. A Sacred Poem for the Unholy (Gate Master).mp3
Channels : 2
Sample Rate : 44100
Precision : 16-bit
Duration : 00:05:40.68 = 15024164 samples = 25551.3 CDDA sectors
File Size : 13.7M
Bit Rate : 322k
Sample Encoding: MPEG audio (layer I, II or III)
Comments :
Title=A Sacred Poem for the Unholy (Gate Master)
Artist=Gate Master
Album=The Codex Astrarium / The Rite of Passage (Split)
Tracknumber=4
Year=2022
Genre=Dungeon Synth | Symphonic Black Metal



Register


Go to the top of the page
  Insert nick Quick quote
+Quote Post
 
Start new topic
Replies (1 - 1)
post Jan 25 2023, 22:08:12
Post #2

Пять Литров
*****
Group: Металариец
Posts: 401
Releases: 0
From: Toulon
On Forums: 2 years 9 months
Thanks: 31 time(s)
France


plz reup thx
Go to the top of the page
  Insert nick Quick quote
+Quote Post

Reply to this topicStart new topic
2 User(s) are reading this topic (2 Guests and 0 Anonymous Users)
0 Members:

 



- Lo-Fi Version Support form
Copyrights and abuse reports form
Time is now: 28th January 2023 - 21:26:17