Welcome Guest ( Log In | Register )

Объявления

* gmail.com упорно продолжает считать почту с нас "unsolicited" и отбивает в том числе и письма активации, поэтому просьба использовать альтернативные почтовые ящики.
------------
* gmail.com continues reject all mail from us as "unsolicited" (activation mails too) therefore please use alternate mail servers.
 
Reply to this topicStart new topic
> Noma - Totally Destroy Music Industry And The Rest Will Follow [ep] (2019), Grindcore
post Nov 4 2022, 21:46:33
Post #1

Слесаръ 6-го разряда.
******
Group: Металариец
Posts: 665
Releases: 387
From: Беларусь, Минск.
On Forums: 12 years 7 months
Thanks: 3904 time(s)
Belarus


(IMG:https://metalarea.org/images/audiocovers/2022_Nov/acov_tid371803_thumb.jpg)

*Artist: Noma
*Album: Totally Destroy Music Industry And The Rest Will Follow [ep]
*Year: 2019
*Genre: Grindcore
*Country: Greece (IMG:https://metalarea.org/forum/style_images/flags/Greece.png)
*Format: mp3@CBR320kbps
*Size: 52MB

Tracklist:
01. Liberal or not 01:09
02. Self- assertion... 00:34
03. ...beyond everything 01:08
04. Lowest of the low 00:38
05. High risk- No gain 00:59
06. Civilazation meltdown 00:46
07. Devastate the state 01:03
08. Gulag Stalin Inc. 00:44
09. Totally destroy music indystry... 00:49
10. ... And the rest will follow 00:54
11. Daturian boys 00:43
12. Noiseokratoria 00:48
13. Lord of nothing 00:46
14. Another rotten mind 00:45
15. Total denial of society's values 00:39
16. Suspended death 00:48
17. Extreme scepticism 00:42
18. Taλαιpωria 00:33
19. Ματωμένο προσωπείο του τσολιά 01:01
20. Heavy metal victims 00:51
21. Loud mouth and useless 00:53
22. Imburial 01:25
******************************
Total playing time: 18:38



Technical info
(IMG:https://metalarea.org/images/spectrogram/2022_Nov/ac538f670c7d6af3ac58d8c3851b422f.png)
Input File: Noma - Totally Destroy Music Industry and the Rest will Follow - 03 ...beyond everything.mp3
Channels : 2
Sample Rate : 44100
Precision : 16-bit
Duration : 00:01:08.42 = 3017234 samples = 5131.35 CDDA sectors
File Size : 2.93M
Bit Rate : 342k
Sample Encoding: MPEG audio (layer I, II or III)
Comments :
Title=...beyond everything
Artist=Noma
Album=Totally Destroy Music Industry and the Rest will Follow
Tracknumber=3
Year=2019



Register


Go to the top of the page
  Insert nick Quick quote
+Quote Post

Reply to this topicStart new topic
1 User(s) are reading this topic (1 Guests and 0 Anonymous Users)
0 Members:

 



- Lo-Fi Version Support form
Copyrights and abuse reports form
Time is now: 13th July 2024 - 03:39:17