Welcome Guest ( Log In | Register )

> Signum Regis - The Promised Land [compilation] (2022), Progressive/Power Metal (D10)
post Nov 5 2022, 13:04:58
Post #1

Правь статус, ####!111
**************
Group: Металариец
Posts: 4,725
Releases: 3159
On Forums: 12 years 2 months
Thanks: 56924 time(s)
Russian Federation


(IMG:https://metalarea.org/images/audiocovers/2022_Nov/acov_tid371841_thumb.jpg)

*Artist: Signum Regis
*Album: The Promised Land [compilation]
*Year: 2022
*Genre: Progressive/Power Metal
*Country: Slovakia (IMG:https://metalarea.org/forum/style_images/flags/Slovakia.png)
*Format: mp3@CBR320kbps
*Size: 264MB

Tracklist:
01.Vengeance-Liar 04:29
02.Passionate Love 03:27
03.Unfold The Mystery 05:17
04.Fields Of Stars 05:54
05.Tune Of War 04:50
06.The Rain 03:51
07.The Seal Of A New World 04:04
08.Dura Europos 04:26
09.Screaming For Justice 04:54
10.Prisoner's Elegy 04:39
11.Mountain Of God 04:08
12.Quitters Never Win 05:18
13.Let Freedom Ring 06:18
14.Fly Away 05:36
15.The Promised Land 05:34
16.Kings Of The Underground 05:07
17.Wrath Of Pharaoh 04:04
18.Kingdom Of Light 05:30
19.Enslaved 04:50
20.I Always Go All-In 05:00
21.Purpleborn 04:51
22.The Ten Plagues 04:47
23.Damnatio Ad Bestias 04:27
24.The Ten Thousand 04:57
******************************
Total playing time: 1:56:18

Extended info
2CD exclusive for Japan


Technical info
(IMG:https://metalarea.org/images/spectrogram/2022_Nov/284c2f36f3995346703ae595768e4f20.png)
Input File: 02. Passionate Love.mp3
Channels : 2
Sample Rate : 44100
Precision : 16-bit
Duration : 00:03:27.56 = 9153264 samples = 15566.8 CDDA sectors
File Size : 8.31M
Bit Rate : 320k
Sample Encoding: MPEG audio (layer I, II or III)
Comments :
Title=Passionate Love
Artist=Signum Regis
Album=The Promised Land
Tracknumber=02
Year=2022
Genre=Progressive/Power Metal



Register


Go to the top of the page
  Insert nick Quick quote
+Quote Post
 
Start new topic
Replies (1 - 2)
post Dec 16 2022, 15:44:08
Post #2

Правь статус, ####!111
**************
Group: Металариец
Posts: 9,480
Releases: 0
From: Москва
On Forums: 13 years 5 months
Thanks: 18796 time(s)
Russian Federation


Неоф сборка, догадываюсь откуда ноги растут


Thanks:
(1) Veggr,
Go to the top of the page
  Insert nick Quick quote
+Quote Post
post Jan 25 2023, 12:51:43
Post #3

Мегаманьяк
***********
Group: Металариец
Posts: 1,874
Releases: 0
From: д. Гадюкино
On Forums: 8 years 8 months
Thanks: 1102 time(s)
Russian Federation


ЦИТАТА(varlam4 @ Dec 16 2022, 19:44:08) *
Неоф сборка, догадываюсь откуда ноги растут

Ага. это знакомые рожи - kite58 и какой-то paul.
Go to the top of the page
  Insert nick Quick quote
+Quote Post

Reply to this topicStart new topic
2 User(s) are reading this topic (2 Guests and 0 Anonymous Users)
0 Members:

 



- Lo-Fi Version Support form
Copyrights and abuse reports form
Time is now: 28th January 2023 - 21:13:51