Welcome Guest ( Log In | Register )

Объявления

* gmail.com упорно продолжает считать почту с нас "unsolicited" и отбивает в том числе и письма активации, поэтому просьба использовать альтернативные почтовые ящики.
------------
* gmail.com continues reject all mail from us as "unsolicited" (activation mails too) therefore please use alternate mail servers.
> Wounded Knee - 122 Lune (2022), Progressive Metal (D4)
post Nov 8 2022, 12:15:23
Post #1

Правь статус, ####!111
**************
Group: Металариец
Posts: 8,958
Releases: 7194
On Forums: 13 years 6 months
Thanks: 126844 time(s)
Italy


(IMG:https://metalarea.org/images/audiocovers/2022_Nov/acov_tid371967_thumb.jpg)

*Artist: Wounded Knee
*Album: 122 Lune
*Year: 2022
*Genre: Progressive Metal
*Country: Italy (IMG:https://metalarea.org/forum/style_images/flags/Italy.png)
*Format: mp3@CBR320kbps
*Size: 146MB

Tracklist:
1.Prologo 01:24
2.E non ero mai stato 05:40
3.Era solo stramonio 05:11
4.122 Lune 05:58
5.Figlio rimasto 08:23
6.Pellerossina 06:17
7.Ocropoid 04:42
8.Non mi hanno insegnato 05:57
9.Miseresistenza alla storia 04:54
10.Una rialtra rivolta 05:20
11.Niente è come prima e tutto è uguale 10:25
******************************
Total playing time: 1:04:11



Technical info
(IMG:https://metalarea.org/images/spectrogram/2022_Nov/5582703599d598975e0929ba8ec4cde9.png)
Input File: 07 - Ocropoid.mp3
Channels : 2
Sample Rate : 44100
Precision : 16-bit
Duration : 00:04:42.12 = 12441272 samples = 21158.6 CDDA sectors
File Size : 11.3M
Bit Rate : 320k
Sample Encoding: MPEG audio (layer I, II or III)
Comments :
Title=Ocropoid
Artist=Wounded Knee
Album=122 Lune
Tracknumber=7
Year=2022



Register


Go to the top of the page
  Insert nick Quick quote
+Quote Post
 
Start new topic
Replies (1 - 5)
post Nov 9 2022, 07:10:45
Post #2

Восемь Литров
********
Group: Металариец
Posts: 875
Releases: 0
On Forums: 17 years 5 months
Thanks: 123 time(s)
Russian Federation


Надо на законодательном уровне запретить петь метал на итальянском, португальском, французском, японском и финском) По сабжу: звучат слишком по детски.


Thanks:
(1) avather,
Go to the top of the page
  Insert nick Quick quote
+Quote Post
post Nov 9 2022, 10:43:23
Post #3

Шесть Литров
******
Group: Металариец
Posts: 502
Releases: 92
From: Moscow
On Forums: 18 years 1 month
Thanks: 2711 time(s)
Russian Federation


ЦИТАТА(KLOP @ 9th November 2022 - 09:10:45) *
Надо на законодательном уровне петь метал на итальянском, португальском, французском, японском и финском)
Чего надо? Обязать или запретить? (IMG:style_emoticons/default/smile1.gif)
А музыка у группы и впрямь несколько наивная.
Go to the top of the page
  Insert nick Quick quote
+Quote Post
post Nov 10 2022, 04:36:06
Post #4

Восемь Литров
********
Group: Металариец
Posts: 875
Releases: 0
On Forums: 17 years 5 months
Thanks: 123 time(s)
Russian Federation


ЦИТАТА(BlackTroll @ Nov 9 2022, 13:43:23) *
Чего надо? Обязать или запретить? (IMG:style_emoticons/default/smile1.gif)
А музыка у группы и впрямь несколько наивная.

Исправил)
Go to the top of the page
  Insert nick Quick quote
+Quote Post
post Nov 12 2022, 08:30:36
Post #5

Пусто
**************
Group: Металариец
Posts: 2,185
Releases: 29
From: Санкт-Петербург
On Forums: 17 years 4 months
Thanks: 1802 time(s)
Russian Federation


ЦИТАТА(KLOP @ Nov 9 2022, 09:10:45) *
Надо на законодательном уровне запретить петь метал на итальянском, португальском, французском, японском и финском) По сабжу: звучат слишком по детски.


на французском пусть поют - чем больше, тем лучше.
а вот про другие языки согласен (IMG:style_emoticons/default/1488.gif)
Go to the top of the page
  Insert nick Quick quote
+Quote Post
post Nov 13 2022, 15:43:56
Post #6

Пять Литров
*****
Group: Металариец
Posts: 420
Releases: 0
From: Сибирь
On Forums: 13 years 2 months
Thanks: 144 time(s)
Russian Federation


Первый альбом на английском, на бэндкампе можно послушать. И на сайте демка есть из 3-х песен - Wounded Knee - The People Of Men [demo] (1995)


Thanks:
(1) Dante_D,
Go to the top of the page
  Insert nick Quick quote
+Quote Post

Reply to this topicStart new topic
2 User(s) are reading this topic (2 Guests and 0 Anonymous Users)
0 Members:

 



- Lo-Fi Version Support form
Copyrights and abuse reports form
Time is now: 29th May 2024 - 10:08:41