Welcome Guest ( Log In | Register )

Объявления

* gmail.com упорно продолжает считать почту с нас "unsolicited" и отбивает в том числе и письма активации, поэтому просьба использовать альтернативные почтовые ящики.
------------
* gmail.com continues reject all mail from us as "unsolicited" (activation mails too) therefore please use alternate mail servers.
> Insomnium - Lilian [single] (2022), Melodic Death Metal (D)
post Nov 10 2022, 07:33:44
Post #1

MDM-Thrash Metal
**************
Group: Металариец
Posts: 12,395
Releases: 1733
From: Одесса
On Forums: 16 years 8 months
Thanks: 40318 time(s)
Ukraine


(IMG:http://metalarea.org/images/audiocovers/2022_Nov/acov_tid372021_thumb.jpg)

*Artist: Insomnium
*Album: Lilian [single]
*Year: 2022
*Genre: Melodic Death Metal
*Country: Finland (IMG:http://metalarea.org/forum/style_images/flags/Finland.png)
*Format: mp3@CBR320kbps
*Size: 10MB

Tracklist:
1. Lilian 04:29
******************************
Total playing time: 4:29


(IMG:http://metalarea.org/images/youtube.png)

Extended info
Niilo Sevänen Bass, Vocals (1997-present)
See also: ex-Watch Me Fall
Markus Hirvonen Drums (1997-present)
Ville Friman Guitars (1997-present), Vocals (clean) (2011-present)
See also: ex-Enter My Silence, ex-Arrival
Markus Vanhala Guitars (2011-present)
See also: I Am the Night, Malpractice, Omnium Gatherum, ex-Gore Penetration, ex-Manitou, ex-Diablo (live), ex-Pressure Points (live), ex-Vornat, ex-Seer of Curses
Jani Liimatainen Guitars, Vocals (clean) (2019-present)
See also: Cain's Offering, Jani Liimatainen, The Dark Element, Omnium Gatherum (live), ex-Graveyard Shift, ex-Tricky Means, Kotipelto & Liimatainen, Sydänpuu, ex-Altaria, ex-Sonata Arctica, ex-Paul Di'Anno (live), ex-Dream Asylum


Technical info
(IMG:http://metalarea.org/images/spectrogram/2022_Nov/980d445965e852bba97db1dc56375bb0.png)
Input File: Insomnium - Lilian.mp3
Channels : 2
Sample Rate : 44100
Precision : 16-bit
Duration : 00:04:29.25 = 11873969 samples = 20193.8 CDDA sectors
File Size : 11.0M
Bit Rate : 326k
Sample Encoding: MPEG audio (layer I, II or III)
Comments :
Title=Lilian
Artist=Insomnium
Album=Lilian (Single)
Tracknumber=01
Year=2022
Genre=Melodic Death Metal



Register


Go to the top of the page
  Insert nick Quick quote
+Quote Post
 
Start new topic
Replies (1 - 2)
post Nov 10 2022, 13:08:09
Post #2

Маньяк
**********
Group: Металариец
Posts: 1,175
Releases: 0
From: Нижний Новгород
On Forums: 17 years 9 months
Thanks: 466 time(s)
Russian Federation


Ровненько, без новшеств, для фонатофф.
Ссылка в ю-трупе не работает ибо правообладатель запретил трансляцию в России.
Go to the top of the page
  Insert nick Quick quote
+Quote Post
post Nov 12 2022, 06:06:52
Post #3

Group: Дух
Posts: 5
Releases: 0
On Forums: 4 years 11 months
Thanks: 3 time(s)
Russian Federation


https://www.youtube.com/watch?v=TecOfiJu1nQ
Go to the top of the page
  Insert nick Quick quote
+Quote Post

Reply to this topicStart new topic
1 User(s) are reading this topic (1 Guests and 0 Anonymous Users)
0 Members:

 



- Lo-Fi Version Support form
Copyrights and abuse reports form
Time is now: 25th April 2024 - 16:27:48