Welcome Guest ( Log In | Register )

> Xentrix - Seven Words (2022), Thrash Metal
post Nov 10 2022, 12:24:09
Post #1

Правь статус, ####!111
**************
Group: Металариец
Posts: 31,351
Releases: 23115
From: Г.Харьков
On Forums: 10 years 8 months
Thanks: 486024 time(s)
Ukraine


(IMG:http://metalarea.org/images/audiocovers/2022_Nov/acov_tid372035_thumb.jpg)

*Artist: Xentrix
*Album: Seven Words
*Year: 2022
*Genre: Thrash Metal
*Country: United Kingdom (IMG:http://metalarea.org/forum/style_images/flags/United%20Kingdom.png)
*Format: mp3@CBR320kbps
*Size: 110MB

Tracklist:
1. Behind the Walls of Treachery 06:05
2. Seven Words 03:57
3. Spit Coin 04:11
4. The Alter of Nothing 04:00
5. Everybody Loves You When You're Dead 05:09
6. Reckless with a Smile 04:09
7. Ghost Tape Number 10 04:23
8. My War 04:39
9. Kill and Protect 04:56
10. Anything but the Truth 05:19
******************************
Total playing time: 46:48




Extended info
Dennis Gasser Drums
Kristian "Stan" Havard Guitars (lead)
Chris Shires Bass
Jay Walsh Vocals, Guitars


Technical info
(IMG:http://metalarea.org/images/spectrogram/2022_Nov/b12825498f0290572f191f0567fcd9ec.png)
Input File: 10 - Anything But The Truth.mp3
Channels : 2
Sample Rate : 44100
Precision : 16-bit
Duration : 00:05:19.00 = 14067900 samples = 23925 CDDA sectors
File Size : 13.0M
Bit Rate : 327k
Sample Encoding: MPEG audio (layer I, II or III)
Comments :
Title=Anything But The Truth
Artist=XentriX
Album=Seven Words
Tracknumber=10
Year=2022-11-04
Genre=Rock
Discnumber=1



Register


Go to the top of the page
  Insert nick Quick quote
+Quote Post
2 Pages V  < 1 2  
Start new topic
Replies (30 - 34)
post Dec 9 2022, 11:41:39
Post #31

21st Century Schizoid Man
**************
Group: Металариец
Posts: 7,826
Releases: 259
From: 1984
On Forums: 14 years 8 months
Thanks: 8140 time(s)
Liberia


Очень однообразно и очень скучно. Скорость вроде есть, а задора как такового нет. Уж о выдумке вообще молчу.

ЦИТАТА(Thrashman @ Nov 12 2022, 09:59:13) *
впечатление как будто прослушал новый альбом Аннихилятора

Вот как раз Уотерс стабильно вытягивает.
Go to the top of the page
  Insert nick Quick quote
+Quote Post
post Dec 9 2022, 18:20:31
Post #32

Пять Литров
*****
Group: Металариец
Posts: 412
Releases: 3
From: Украина
On Forums: 4 years 6 months
Thanks: 209 time(s)
Ukraine


ЦИТАТА(Andrew @ Nov 14 2022, 19:30:16) *

Согласен, добротные, но не хиты
Go to the top of the page
  Insert nick Quick quote
+Quote Post
post Dec 11 2022, 13:46:08
Post #33

Ёлд ХеллоВяйне
Group Icon
Group: V.I.P
Posts: 34,015
Releases: 144
From: Питер
On Forums: 16 years 3 months
Thanks: 21358 time(s)
Russian Federation


В итоге 2 с половиной приличных трека на альбом, ну наxер. Удолил.
Go to the top of the page
  Insert nick Quick quote
+Quote Post
post Jan 24 2023, 18:30:36
Post #34

local
**************
Group: Металариец
Posts: 2,822
Releases: 260
On Forums: 16 years 2 months
Thanks: 7460 time(s)
Unknown


Лучший трек с альбома
11. Billion Dollar Babies (Alice Cooper cover) 02:59
пока в 128 kbps, по-прежнему разыскивается в качестве

Register



Thanks:
Go to the top of the page
  Insert nick Quick quote
+Quote Post
post Jan 24 2023, 21:58:02
Post #35

Ёлд ХеллоВяйне
Group Icon
Group: V.I.P
Posts: 34,015
Releases: 144
From: Питер
On Forums: 16 years 3 months
Thanks: 21358 time(s)
Russian Federation


QUOTE(kostja @ 24th January 2023 - 20:30:36) *
Лучший трек с альбома


Откровенно печально, что этот довольно проходной кавер действительно лучше основного материала.
Go to the top of the page
  Insert nick Quick quote
+Quote Post

2 Pages V  < 1 2
Reply to this topicStart new topic
2 User(s) are reading this topic (2 Guests and 0 Anonymous Users)
0 Members:

 



- Lo-Fi Version Support form
Copyrights and abuse reports form
Time is now: 28th January 2023 - 20:33:14