Welcome Guest ( Log In | Register )

> Crypt Rot - An Ancient Summoning (2022), Brutal Death Metal
post Nov 11 2022, 15:31:09
Post #1

Правь статус, ####!111
**************
Group: Металариец
Posts: 31,377
Releases: 23137
From: Г.Харьков
On Forums: 10 years 8 months
Thanks: 486727 time(s)
Ukraine


(IMG:http://metalarea.org/images/audiocovers/2022_Nov/acov_tid372113_thumb.jpg)

*Artist: Crypt Rot
*Album: An Ancient Summoning
*Year: 2022
*Genre: Brutal Death Metal
*Country: United Kingdom (IMG:http://metalarea.org/forum/style_images/flags/United%20Kingdom.png)
*Format: mp3@CBR320kbps
*Size: 72MB

Tracklist:
1. The Work of Worms 03:41
2. An Ancient Summoning 03:57
3. Arcane Rites 05:25
4. One Thousand Serpent Tongues 04:35
5. Pestilential Vortex 04:00
6. A Pit of Snakes 04:14
7. Diabolically Reborn 04:40
******************************
Total playing time: 30:32



Extended info
Tom Hughes Guitars, Bass
See also: Blood Rage, Maimed
Kyle Shaun Thomas Vocals
Justin Wallisch Drums (2022-present)
See also: Between the Killings, Maimed, Necessary Death, Severed Headshop, ex-Necrotica


Technical info
(IMG:http://metalarea.org/images/spectrogram/2022_Nov/609ccb516a6dbb931d8ec0ca2bea8161.png)
Input File: 07. Diabolically Reborn (feat. Larry Wang - Gorepot & Ryan Wills - Seven Doors).mp3
Channels : 2
Sample Rate : 44100
Precision : 16-bit
Duration : 00:04:40.08 = 12351396 samples = 21005.8 CDDA sectors
File Size : 11.5M
Bit Rate : 328k
Sample Encoding: MPEG audio (layer I, II or III)
Comments :
Title=Diabolically Reborn (feat. Larry Wang - Gorepot & Ryan Wills - Seven Doors)
Artist=Crypt Rot
Album=An Ancient Summoning
Tracknumber=07
Year=2022



Register


Go to the top of the page
  Insert nick Quick quote
+Quote Post
 
Start new topic
Replies (1 - 2)
post Nov 11 2022, 21:36:59
Post #2

Правь статус, ####!111
**************
Group: Металариец
Posts: 31,377
Releases: 23137
From: Г.Харьков
On Forums: 10 years 8 months
Thanks: 486727 time(s)
Ukraine


FLAC (Tracks) 400 mb
Register


Go to the top of the page
  Insert nick Quick quote
+Quote Post
post Jan 27 2023, 23:37:29
Post #3

NOUMENA
**************
Group: Металариец
Posts: 7,751
Releases: 13
On Forums: 13 years 2 months
Thanks: 3739 time(s)
Unknown


Solid.
Go to the top of the page
  Insert nick Quick quote
+Quote Post

Reply to this topicStart new topic
1 User(s) are reading this topic (1 Guests and 0 Anonymous Users)
0 Members:

 



- Lo-Fi Version Support form
Copyrights and abuse reports form
Time is now: 1st February 2023 - 09:35:52