Welcome Guest ( Log In | Register )

Объявления

* gmail.com упорно продолжает считать почту с нас "unsolicited" и отбивает в том числе и письма активации, поэтому просьба использовать альтернативные почтовые ящики.
------------
* gmail.com continues reject all mail from us as "unsolicited" (activation mails too) therefore please use alternate mail servers.
> Metalian - Beyond The Wall (2022), Heavy/Speed Metal (D)
post Nov 14 2022, 15:24:50
Post #1

Правь статус, ####!111
**************
Group: Металариец
Posts: 36,460
Releases: 27188
From: Г.Харьков
On Forums: 12 years 2 months
Thanks: 592720 time(s)
Ukraine


(IMG:https://metalarea.org/images/audiocovers/2022_Nov/acov_tid372328_thumb.jpg)

*Artist: Metalian
*Album: Beyond The Wall
*Year: 2022
*Genre: Heavy/Speed Metal
*Country: Canada (IMG:https://metalarea.org/forum/style_images/flags/Canada.png)
*Format: mp3@CBR320kbps
*Size: 101MB

Tracklist:
1. March to the Death 06:41
2. Motorhorse 03:52
3. Fire on the Road 03:12
4. Last Chance to Ride 02:55
5. Solar Winds 05:18
6. Rise of the AI 05:57
7. Beyond the Wall 02:50
8. Behind the Lies 03:48
9. Cold Thunder 03:49
10. Dark City 04:52
******************************
Total playing time: 43:14




Extended info
Tony Drums
See also: Abyssed
Ian Vocals, Guitars
See also: Abyssed, Night Seeker
Andres Arango Bass (2012-present)
See also: Cauchemar, Infección, Violentada, Pagan Altar (live), Muertos
Simon Guitars (2013-present)


Technical info
(IMG:https://metalarea.org/images/spectrogram/2022_Nov/6f7d874f43628475ba964473d45aaa57.png)
Input File: Metalian - Beyond the Wall - 05 Solar Winds.mp3
Channels : 2
Sample Rate : 44100
Precision : 16-bit
Duration : 00:05:18.40 = 14041352 samples = 23879.9 CDDA sectors
File Size : 12.9M
Bit Rate : 325k
Sample Encoding: MPEG audio (layer I, II or III)
Comments :
Title=Solar Winds
Artist=Metalian
Album=Beyond the Wall
Tracknumber=5
Year=2022



Register


Go to the top of the page
  Insert nick Quick quote
+Quote Post
 
Start new topic
Replies (1 - 2)
post Apr 18 2024, 17:31:48
Post #2

i listen to black metal
**************
Group: Металариец
Posts: 4,124
Releases: 150
From: Москва
On Forums: 17 years 7 months
Thanks: 2642 time(s)
Russian Federation


шикарный рокнрольный хэви ,побежал качать все альбомы!!!!!
Go to the top of the page
  Insert nick Quick quote
+Quote Post
post Jul 10 2024, 08:18:33
Post #3

Три Литра
***
Group: Завсегдатай
Posts: 207
Releases: 0
On Forums: 15 years 2 months
Thanks: 6 time(s)
Russian Federation


new link?
Go to the top of the page
  Insert nick Quick quote
+Quote Post

Reply to this topicStart new topic
2 User(s) are reading this topic (2 Guests and 0 Anonymous Users)
0 Members:

 



- Lo-Fi Version Support form
Copyrights and abuse reports form
Time is now: 24th July 2024 - 10:57:07