Welcome Guest ( Log In | Register )

Объявления

* gmail.com упорно продолжает считать почту с нас "unsolicited" и отбивает в том числе и письма активации, поэтому просьба использовать альтернативные почтовые ящики.
------------
* gmail.com continues reject all mail from us as "unsolicited" (activation mails too) therefore please use alternate mail servers.
> Bak - Crater [ep] (2021), Oriental Progressive Metal
post Nov 14 2022, 21:07:54
Post #1

21st Century Schizoid Man
**************
Group: Металариец
Posts: 8,450
Releases: 318
From: 1984
On Forums: 16 years 3 weeks
Thanks: 9409 time(s)
Unknown


(IMG:https://metalarea.org/images/audiocovers/2022_Nov/acov_tid372353_thumb.jpg)

*Artist: Bak
*Album: Crater
*Year: 2021
*Genre: Oriental Progressive Metal
*Country: Australia (IMG:https://metalarea.org/forum/style_images/flags/Australia.png)
*Format: mp3@CBR320kbps
*Size: 60MB

Tracklist:
1.Damage Done 06:33
2.Nasnas 04:59
3.Ends The Same 06:08
4.Future's Reality 07:44
******************************
Total playing time: 25:24


(IMG:https://metalarea.org/images/youtube.png)
(IMG:https://metalarea.org/images/youtube.png)

Extended info
Beau - guitar, bass, baglama
Kit - drums, percussion, keyboards, piano


Technical info
(IMG:https://metalarea.org/images/spectrogram/2022_Nov/cd07889673e7dbcc79c3f77de729ce22.png)
Input File: 01. Damage Done.mp3
Channels : 2
Sample Rate : 44100
Precision : 16-bit
Duration : 00:06:33.27 = 17343295 samples = 29495.4 CDDA sectors
File Size : 15.7M
Bit Rate : 320k
Sample Encoding: MPEG audio (layer I, II or III)
Comments :
Title=Damage Done
Artist=Bak
Album=Crater
Tracknumber=1
Year=2021
Genre=Oriental Progressive Metal



Register


Go to the top of the page
  Insert nick Quick quote
+Quote Post
 
Start new topic
Replies (1 - 3)
post Nov 15 2022, 04:28:57
Post #2

Восемь Литров
********
Group: Металариец
Posts: 875
Releases: 0
On Forums: 17 years 5 months
Thanks: 123 time(s)
Russian Federation


Ярри, остановись, я не успеваю все слушать! )))


Thanks:
(2) roaroma, Yarri,
Go to the top of the page
  Insert nick Quick quote
+Quote Post
post Nov 15 2022, 05:10:25
Post #3

Восемь Литров
********
Group: Металариец
Posts: 875
Releases: 0
On Forums: 17 years 5 months
Thanks: 123 time(s)
Russian Federation


Средненький такой ориентал с неплохими идеями, но не более того.
Go to the top of the page
  Insert nick Quick quote
+Quote Post
post Nov 15 2022, 16:58:50
Post #4

к приему виски готов
*********
Group: Металариец
Posts: 957
Releases: 3
From: Украина
On Forums: 15 years 3 months
Thanks: 565 time(s)
Ukraine


О, нравятся эти парни, только, вот, последние альбомы у них слишком mini.
Да уж, за столько лет не смогли ничего более интересного создать. Песенки не плохи, но все это они уже исполняли ранее. (IMG:style_emoticons/default/16.gif) .
Но , пожалуй оставлю, добавлю к минику 2012 - получится почти как альбом.
Go to the top of the page
  Insert nick Quick quote
+Quote Post

Reply to this topicStart new topic
2 User(s) are reading this topic (2 Guests and 0 Anonymous Users)
0 Members:

 



- Lo-Fi Version Support form
Copyrights and abuse reports form
Time is now: 29th May 2024 - 10:34:33