Welcome Guest ( Log In | Register )

Объявления

* gmail.com упорно продолжает считать почту с нас "unsolicited" и отбивает в том числе и письма активации, поэтому просьба использовать альтернативные почтовые ящики.
------------
* gmail.com continues reject all mail from us as "unsolicited" (activation mails too) therefore please use alternate mail servers.

> И неформату есть предел.

Рэп/хип-хоп/шансон/поп удаляются. Для них есть свои порталы.

> Thank You Scientist - Maps Of Non-Existent Places (2012), Progressive Rock/Fusion
post Nov 14 2022, 21:44:37
Post #1

21st Century Schizoid Man
**************
Group: Металариец
Posts: 8,450
Releases: 318
From: 1984
On Forums: 16 years 3 weeks
Thanks: 9408 time(s)
Unknown


(IMG:https://metalarea.org/images/audiocovers/2022_Nov/acov_tid372358_thumb.jpg)

*Artist: Thank You Scientist
*Album: Maps Of Non-Existent Places
*Year: 2012
*Genre: Progressive Rock/Fusion
*Country: United States (IMG:https://metalarea.org/forum/style_images/flags/United%20States.png)
*Format: mp3@CBR320kbps
*Size: 135MB

Tracklist:
01. Prelude 1:11
02. A Salesman's Guide to Nonexistence 5:03
03. Feed the Horses 6:27
04. Blood on the Radio 9:22
05. Absentee 5:59
06. Suspicious Waveforms 6:32
07. Carnival 6:32
08. Concrete Swan Dive 5:48
09. In the Company of Worms 5:47
10. My Famed Disappearing Act 5:44
******************************
Total playing time: 58:25


(IMG:https://metalarea.org/images/youtube.png)
(IMG:https://metalarea.org/images/youtube.png)

Extended info
Salvatore Marrano - vocals
Tom Monda - fretted and fretless guitar, acoustic guitar, cello, shamisen, vocals
Russ Lynch - violin, viola, mandolin
Andrew Digrius - trumpet, flugelhorn, trombone, vocals
Ellis Jasenovic - tenor and soprano saxophone
Greg Colacino - bass
Odin Alvarez - drums and percussion


Technical info
(IMG:https://metalarea.org/images/spectrogram/2022_Nov/c8cffd734e338ef81e589f43d97f6185.png)
Input File: 02. A Salesman\'s Guide to Non-Existence.mp3
Channels : 2
Sample Rate : 44100
Precision : 16-bit
Duration : 00:05:06.33 = 13509197 samples = 22974.8 CDDA sectors
File Size : 12.3M
Bit Rate : 320k
Sample Encoding: MPEG audio (layer I, II or III)
Comments :
Title=A Salesman's Guide to Non-Existence
Artist=Thank You Scientist
Album=Maps of Non-Existent Places
Tracknumber=2
Year=2012
Genre=Progressive Rock



Register


Go to the top of the page
  Insert nick Quick quote
+Quote Post
 
Start new topic
Replies (1 - 7)
post Nov 16 2022, 07:46:04
Post #2

Восемь Литров
********
Group: Металариец
Posts: 875
Releases: 0
On Forums: 17 years 5 months
Thanks: 123 time(s)
Russian Federation


Чем то похож на Панцербаллет, только более простой для понимания и без шизоидинки. Забрал после 3-го включенного трека.
Go to the top of the page
  Insert nick Quick quote
+Quote Post
post Nov 16 2022, 08:19:45
Post #3

21st Century Schizoid Man
**************
Group: Металариец
Posts: 8,450
Releases: 318
From: 1984
On Forums: 16 years 3 weeks
Thanks: 9408 time(s)
Unknown


KLOP,
Да, такая же ассоциация.
Go to the top of the page
  Insert nick Quick quote
+Quote Post
post Nov 16 2022, 10:31:38
Post #4

Восемь Литров
********
Group: Металариец
Posts: 875
Releases: 0
On Forums: 17 years 5 months
Thanks: 123 time(s)
Russian Federation


Они кстати в Алмату приезжают, состав поменялся почти полностью.
Go to the top of the page
  Insert nick Quick quote
+Quote Post
post Nov 16 2022, 14:50:20
Post #5

brutalcesar
**************
Group: Металариец
Posts: 18,792
Releases: 77
From: Рязань
On Forums: 15 years 4 months
Thanks: 11262 time(s)
Russian Federation


Послушал Blood on the Radio - и точно надо брать! Вокал сильно выведен вперёд при записи, мне так не очень по нраву, но в целом ненавязчивый в звучании, но интересный прог
Go to the top of the page
  Insert nick Quick quote
+Quote Post
post Nov 17 2022, 15:11:40
Post #6

21st Century Schizoid Man
**************
Group: Металариец
Posts: 8,450
Releases: 318
From: 1984
On Forums: 16 years 3 weeks
Thanks: 9408 time(s)
Unknown


Дополнил дискографию, но она вся улетела в неформат:

Thank You Scientist - The Perils Of Time Travel [ep] (2011)
Thank You Scientist - Stranger Heads Prevail (2016)
Thank You Scientist - Terraformer (2019)
Thank You Scientist - Plague Accommodations [ep] (2021)

2011-й стоит слушать в последнюю очередь, он у них слабее всех остальных.


Thanks:
(2) cesar, KLOP,
Go to the top of the page
  Insert nick Quick quote
+Quote Post
post Nov 18 2022, 06:36:16
Post #7

Восемь Литров
********
Group: Металариец
Posts: 875
Releases: 0
On Forums: 17 years 5 months
Thanks: 123 time(s)
Russian Federation


ЦИТАТА(Yarri @ Nov 17 2022, 18:11:40) *
Дополнил дискографию, но она вся улетела в неформат:

Thank You Scientist - The Perils Of Time Travel [ep] (2011)
Thank You Scientist - Stranger Heads Prevail (2016)
Thank You Scientist - Terraformer (2019)
Thank You Scientist - Plague Accommodations [ep] (2021)

2011-й стоит слушать в последнюю очередь, он у них слабее всех остальных.

Я знаю что я буду делать на новогодних каникулах)


Thanks:
(2) cesar, Yarri,
Go to the top of the page
  Insert nick Quick quote
+Quote Post
post Dec 30 2022, 10:40:17
Post #8

brutalcesar
**************
Group: Металариец
Posts: 18,792
Releases: 77
From: Рязань
On Forums: 15 years 4 months
Thanks: 11262 time(s)
Russian Federation


ЦИТАТА(Yarri @ Nov 17 2022, 17:11:40) *
2011-й стоит слушать в последнюю очередь, он у них слабее всех остальных.

Ну такой, сыроватый что ли. Есть немного
А вот 2021-й особенно понравился!


Thanks:
(1) Yarri,
Go to the top of the page
  Insert nick Quick quote
+Quote Post

Reply to this topicStart new topic
1 User(s) are reading this topic (1 Guests and 0 Anonymous Users)
0 Members:

 



- Lo-Fi Version Support form
Copyrights and abuse reports form
Time is now: 29th May 2024 - 09:16:42