Welcome Guest ( Log In | Register )

Объявления

* gmail.com упорно продолжает считать почту с нас "unsolicited" и отбивает в том числе и письма активации, поэтому просьба использовать альтернативные почтовые ящики.
------------
* gmail.com continues reject all mail from us as "unsolicited" (activation mails too) therefore please use alternate mail servers.
> Spaceman Sir. - Aftermath (2022), Progressive Metal
post Nov 15 2022, 05:16:02
Post #1

Правь статус, ####!111
**************
Group: Металариец
Posts: 8,958
Releases: 7194
On Forums: 13 years 6 months
Thanks: 126842 time(s)
Italy


(IMG:https://metalarea.org/images/audiocovers/2022_Nov/acov_tid372364_thumb.jpg)

*Artist: Spaceman Sir.
*Album: Aftermath
*Year: 2022
*Genre: Progressive Metal
*Country: United States (IMG:https://metalarea.org/forum/style_images/flags/United%20States.png)
*Format: mp3@CBR320kbps
*Size: 117MB

Tracklist:
01.T3V0cm8gaXMgTW9yc2U= 07:31
02.Wreck 04:36
03.Green 07:36
04.Exodus I 05:40
05.Exodus II 02:35
06.Exodus III 05:47
07.Katharsis 02:50
08.A space tale 09:41
09.After dark (Bonus track) 04:28
******************************
Total playing time: 50:44

(IMG:https://metalarea.org/images/youtube.png)

Technical info
(IMG:https://metalarea.org/images/spectrogram/2022_Nov/2b71a4f0e34ed0bca390ce1892619da3.png)
Input File: 02 - Wreck.mp3
Channels : 2
Sample Rate : 44100
Precision : 16-bit
Duration : 00:04:36.00 = 12171600 samples = 20700 CDDA sectors
File Size : 11.3M
Bit Rate : 326k
Sample Encoding: MPEG audio (layer I, II or III)
Comments :
Title=Wreck
Artist=Spaceman Sir.
Album=Aftermath
Tracknumber=2
Year=2022-11-15
Genre=Metal
Discnumber=1



Register


Go to the top of the page
  Insert nick Quick quote
+Quote Post
 
Start new topic
Replies (1 - 1)
post Nov 16 2022, 06:47:12
Post #2

Восемь Литров
********
Group: Металариец
Posts: 875
Releases: 0
On Forums: 17 years 5 months
Thanks: 123 time(s)
Russian Federation


По большей части пост рок с элементами мелодик рока. И естессна куда без ложки дегтя: человеку не хватает музыкальной зрелости и поэтому некоторые песни выглядят откровенно сырыми. Похоже он еще не осознал в каком ключе ему работать.


Thanks:
(1) andgrek28,
Go to the top of the page
  Insert nick Quick quote
+Quote Post

Reply to this topicStart new topic
2 User(s) are reading this topic (2 Guests and 0 Anonymous Users)
0 Members:

 



- Lo-Fi Version Support form
Copyrights and abuse reports form
Time is now: 29th May 2024 - 09:31:58