Welcome Guest ( Log In | Register )

Объявления

* gmail.com упорно продолжает считать почту с нас "unsolicited" и отбивает в том числе и письма активации, поэтому просьба использовать альтернативные почтовые ящики.
------------
* gmail.com continues reject all mail from us as "unsolicited" (activation mails too) therefore please use alternate mail servers.
> North Of South - The Dogma And The Outsider [ep] (2019), Progressive Metal
post Nov 16 2022, 15:36:37
Post #1

21st Century Schizoid Man
**************
Group: Металариец
Posts: 8,450
Releases: 318
From: 1984
On Forums: 16 years 3 weeks
Thanks: 9408 time(s)
Unknown


(IMG:https://metalarea.org/images/audiocovers/2022_Nov/acov_tid372427_thumb.jpg)

*Artist: North Of South
*Album: The Dogma And The Outsider
*Year: 2019
*Genre: Progressive Metal
*Country: Spain (IMG:https://metalarea.org/forum/style_images/flags/Spain.png)
*Format: mp3@CBR320kbps
*Size: 75MB

Tracklist:
01. Ember Remains 05:01
02. Spanish Momento 01:18
03. We Refused To Hear Them (It's Our Song) 04:27
04. Thicker Than Progress Water 03:20
05. Against Oblivion 04:29
06. On Unexpected Shores 04:01
07. Hyperballad 05:03
08. Englishman In New York 04:42
******************************
Total playing time: 32:21

(IMG:https://metalarea.org/images/youtube.png)
(IMG:https://metalarea.org/images/youtube.png)

Extended info
Chechu Nos - Vocals, Guitars, Bass, Drum Programming, Synthesizers

Guests
Kobi Farhi - Vocals (1)
Anna Murphy - Vocals (3)
Zuberoa Aznarez - Vocals (8)


Technical info
(IMG:https://metalarea.org/images/spectrogram/2022_Nov/803516d58b196037b2573abd51b664ec.png)
Input File: 01. Ember Remains.mp3
Channels : 2
Sample Rate : 44100
Precision : 16-bit
Duration : 00:05:01.24 = 13284552 samples = 22592.8 CDDA sectors
File Size : 12.1M
Bit Rate : 321k
Sample Encoding: MPEG audio (layer I, II or III)
Comments :
Title=Ember Remains
Artist=North Of South
Album=The Dogma And The Outsider
Tracknumber=1
Year=2019
Genre=Progressive Metal



Register


Go to the top of the page
  Insert nick Quick quote
+Quote Post
 
Start new topic
Replies (1 - 1)
post Nov 17 2022, 10:08:32
Post #2

Восемь Литров
********
Group: Металариец
Posts: 875
Releases: 0
On Forums: 17 years 5 months
Thanks: 123 time(s)
Russian Federation


Тут непонятно, первый клип вроде норм, а второй звучит немного попсово и дешево...


Thanks:
Go to the top of the page
  Insert nick Quick quote
+Quote Post

Reply to this topicStart new topic
2 User(s) are reading this topic (2 Guests and 0 Anonymous Users)
0 Members:

 



- Lo-Fi Version Support form
Copyrights and abuse reports form
Time is now: 29th May 2024 - 09:20:38