Welcome Guest ( Log In | Register )

Объявления

* gmail.com упорно продолжает считать почту с нас "unsolicited" и отбивает в том числе и письма активации, поэтому просьба использовать альтернативные почтовые ящики.
------------
* gmail.com continues reject all mail from us as "unsolicited" (activation mails too) therefore please use alternate mail servers.
> Sandro Casu - We Are (2021), Progressive Metal
post Nov 16 2022, 15:44:18
Post #1

21st Century Schizoid Man
**************
Group: Металариец
Posts: 8,450
Releases: 318
From: 1984
On Forums: 16 years 3 weeks
Thanks: 9408 time(s)
Unknown


(IMG:https://metalarea.org/images/audiocovers/2022_Nov/acov_tid372428_thumb.jpg)

*Artist: Sandro Casu
*Album: We Are
*Year: 2021
*Genre: Progressive Metal
*Country: France (IMG:https://metalarea.org/forum/style_images/flags/France.png)
*Format: mp3@CBR320kbps
*Size: 112MB

Tracklist:
01. Atoms Of Passion 07:03
02. Timeless 05:24
03. Curiosity 04:36
04. Ephemeral 08:11
05. Virus 04:32
06. Patience 04:01
07. The Optimist 03:55
08. Haze Of Feelings 02:22
09. Hypocrites 04:33
10. Ataraxic 04:06
******************************
Total playing time: 48:43

(IMG:https://metalarea.org/images/youtube.png)


Extended info
Sandro Casu - all, except

Thami Jadid - Vocals (2)
Valzore - Guitar solo (3)
Julien Deyres - Vocals (4)
Andy Paul Edson - Bass solo (4)
Mike Semesky - Vocals (5)
Morgane Cadre - Vocals and Flute (8)
Jimmy Fovet - Vocals (9)


Technical info
(IMG:https://metalarea.org/images/spectrogram/2022_Nov/56d4b206aaf8c09101091287ec2e5d5e.png)
Input File: 01. Atoms Of Passion.mp3
Channels : 2
Sample Rate : 44100
Precision : 16-bit
Duration : 00:07:03.08 = 18657784 samples = 31730.9 CDDA sectors
File Size : 16.9M
Bit Rate : 320k
Sample Encoding: MPEG audio (layer I, II or III)
Comments :
Title=Atoms Of Passion
Artist=Sandro Casu
Album=We Are
Tracknumber=1
Year=2021
Genre=Progressive Metal



Register


Go to the top of the page
  Insert nick Quick quote
+Quote Post
 
Start new topic
Replies (1 - 4)
post Nov 16 2022, 17:05:04
Post #2

Два кусочека кавбаски
***
Group: Завсегдатай
Posts: 294
Releases: 29
From: Колыбель металла
On Forums: 16 years 6 months
Thanks: 421 time(s)
Russian Federation


горшочек, не вари !


Thanks:
(1) Yarri,
Go to the top of the page
  Insert nick Quick quote
+Quote Post
post Nov 16 2022, 19:59:21
Post #3

грызущие вместе
*******
Group: Металариец
Posts: 741
Releases: 0
From: Moscow/MO
On Forums: 17 years 6 months
Thanks: 282 time(s)
Russian Federation


Горшочек, вари еще.
*я хз вообще, откуда люди столько прога берут* (IMG:style_emoticons/default/hmm.gif)


Thanks:
(1) Yarri,
Go to the top of the page
  Insert nick Quick quote
+Quote Post
post Nov 17 2022, 07:53:02
Post #4

Восемь Литров
********
Group: Металариец
Posts: 875
Releases: 0
On Forums: 17 years 5 months
Thanks: 123 time(s)
Russian Federation


Не, не, пусть горшочек варит!)
Go to the top of the page
  Insert nick Quick quote
+Quote Post
post Nov 17 2022, 09:28:56
Post #5

Восемь Литров
********
Group: Металариец
Posts: 875
Releases: 0
On Forums: 17 years 5 months
Thanks: 123 time(s)
Russian Federation


Отличный мелодик модерн прог с соляками в духе Сатриани.


Thanks:
(1) Yarri,
Go to the top of the page
  Insert nick Quick quote
+Quote Post

Reply to this topicStart new topic
2 User(s) are reading this topic (2 Guests and 0 Anonymous Users)
0 Members:

 



- Lo-Fi Version Support form
Copyrights and abuse reports form
Time is now: 29th May 2024 - 09:05:08