Welcome Guest ( Log In | Register )

Объявления

* gmail.com упорно продолжает считать почту с нас "unsolicited" и отбивает в том числе и письма активации, поэтому просьба использовать альтернативные почтовые ящики.
------------
* gmail.com continues reject all mail from us as "unsolicited" (activation mails too) therefore please use alternate mail servers.

> И неформату есть предел.

Рэп/хип-хоп/шансон/поп удаляются. Для них есть свои порталы.

 
Reply to this topicStart new topic
> Thank You Scientist - Terraformer (2019), Progressive Rock/Fusion
post Nov 17 2022, 06:13:59
Post #1

21st Century Schizoid Man
**************
Group: Металариец
Posts: 8,450
Releases: 318
From: 1984
On Forums: 16 years 3 weeks
Thanks: 9408 time(s)
Unknown


(IMG:https://metalarea.org/images/audiocovers/2022_Nov/acov_tid372447_thumb.jpg)

*Artist: Thank You Scientist
*Album: Terraformer
*Year: 2019
*Genre: Progressive Rock/Fusion
*Country: United States (IMG:https://metalarea.org/forum/style_images/flags/United%20States.png)
*Format: mp3@CBR320kbps
*Size: 197MB

Tracklist:
01. Wrinkle 2:32
02. FXMLDR 7:56
03. Swarm 6:25
04. Son of a Serpent 8:06
05. Birdwatching 3:41
06. Everyday Ghosts 10:03
07. Chromology 9:49
08. Geronimo 6:15
09. Life of Vermin 8:11
10. Shatner's Lament 1:13
11. Anchor 9:56
12. New Moon 2:01
13. Terraformer 8:07
******************************
Total playing time: 1:24:15


(IMG:https://metalarea.org/images/youtube.png)
(IMG:https://metalarea.org/images/youtube.png)
(IMG:https://metalarea.org/images/youtube.png)
(IMG:https://metalarea.org/images/youtube.png)

Extended info
Salvatore Marrano - vocals
Tom Monda - fretted & fretless guitars, acoustic guitar, sitar, shamisen, vocals, string arrangements, producer
Ben Karas - Violin, 5-string electric violin, viola
Joe Gullas - trumpet, flugelhorn
Sam Greenfield - saxophone
Cody McCorry - bass, Theremin, saw
Joe Fadem - drums


Technical info
(IMG:https://metalarea.org/images/spectrogram/2022_Nov/380b16587b254739769b60e1dbd4a1fa.png)
Input File: 02. FXMLDR.mp3
Channels : 2
Sample Rate : 44100
Precision : 16-bit
Duration : 00:07:56.40 = 21009152 samples = 35729.9 CDDA sectors
File Size : 19.1M
Bit Rate : 321k
Sample Encoding: MPEG audio (layer I, II or III)
Comments :
Title=FXMLDR
Artist=Thank You Scientist
Album=Terraformer
Tracknumber=2
Year=2019
Genre=Progressive Rock



Register


Go to the top of the page
  Insert nick Quick quote
+Quote Post

Reply to this topicStart new topic
1 User(s) are reading this topic (1 Guests and 0 Anonymous Users)
0 Members:

 



- Lo-Fi Version Support form
Copyrights and abuse reports form
Time is now: 29th May 2024 - 08:36:54