Welcome Guest ( Log In | Register )

Объявления

* gmail.com упорно продолжает считать почту с нас "unsolicited" и отбивает в том числе и письма активации, поэтому просьба использовать альтернативные почтовые ящики.
------------
* gmail.com continues reject all mail from us as "unsolicited" (activation mails too) therefore please use alternate mail servers.

> И неформату есть предел.

Рэп/хип-хоп/шансон/поп удаляются. Для них есть свои порталы.

> Thank You Scientist - Plague Accommodations [ep] (2021), Progressive Rock/Fusion
post Nov 17 2022, 06:18:49
Post #1

21st Century Schizoid Man
**************
Group: Металариец
Posts: 8,436
Releases: 317
From: 1984
On Forums: 16 years 2 weeks
Thanks: 9368 time(s)
Unknown


(IMG:https://metalarea.org/images/audiocovers/2022_Nov/acov_tid372448_thumb.jpg)

*Artist: Thank You Scientist
*Album: Plague Accommodations [ep]
*Year: 2021
*Genre: Progressive Rock/Fusion
*Country: United States (IMG:https://metalarea.org/forum/style_images/flags/United%20States.png)
*Format: mp3@CBR320kbps
*Size: 48MB

Tracklist:
01. Gigglebutton 01:55
02. Creature Comfort 05:30
03. Soul Diver 06:51
04. Plague Accommodations 06:02
******************************
Total playing time: 20:18


(IMG:https://metalarea.org/images/youtube.png)
(IMG:https://metalarea.org/images/youtube.png)
(IMG:https://metalarea.org/images/youtube.png)
(IMG:https://metalarea.org/images/youtube.png)

Extended info
Salvatore Marrano - Vocals
Tom Monda - Guitar
Ben Karas - Violin
Cody McCorry - Bass
Joe Gullace - Trumpet
Sam Greenfield - Sax
Faye Fadem - Drums

Guests:
Ian Gray - trombone
Sam Gellerstein - bass trombone
Kevin Grossman - Percussion and Trash


Technical info
(IMG:https://metalarea.org/images/spectrogram/2022_Nov/2df147b92cfae03f4982e20bb418e86f.png)
Input File: 01. Gigglebutton.mp3
Channels : 2
Sample Rate : 44100
Precision : 16-bit
Duration : 00:01:55.73 = 5103781 samples = 8679.9 CDDA sectors
File Size : 4.63M
Bit Rate : 320k
Sample Encoding: MPEG audio (layer I, II or III)
Comments :
Title=Gigglebutton
Artist=Thank You Scientist
Album=Plague Accommodations
Tracknumber=1
Year=2021
Genre=Progressive Rock



Register


Thanks:
Go to the top of the page
  Insert nick Quick quote
+Quote Post
 
Start new topic
Replies (1 - 1)
post Dec 30 2022, 10:40:41
Post #2

brutalcesar
**************
Group: Металариец
Posts: 18,790
Releases: 77
From: Рязань
On Forums: 15 years 4 months
Thanks: 11258 time(s)
Russian Federation


Класс!!
Go to the top of the page
  Insert nick Quick quote
+Quote Post

Reply to this topicStart new topic
1 User(s) are reading this topic (1 Guests and 0 Anonymous Users)
0 Members:

 



- Lo-Fi Version Support form
Copyrights and abuse reports form
Time is now: 20th May 2024 - 18:45:36