Welcome Guest ( Log In | Register )

Объявления

* gmail.com упорно продолжает считать почту с нас "unsolicited" и отбивает в том числе и письма активации, поэтому просьба использовать альтернативные почтовые ящики.
------------
* gmail.com continues reject all mail from us as "unsolicited" (activation mails too) therefore please use alternate mail servers.
> Retrospective - Introvert (2022), Progressive Rock/Metal (D4)
post Nov 18 2022, 09:50:13
Post #1

21st Century Schizoid Man
**************
Group: Металариец
Posts: 8,450
Releases: 318
From: 1984
On Forums: 16 years 3 weeks
Thanks: 9409 time(s)
Unknown


(IMG:https://metalarea.org/images/audiocovers/2022_Nov/acov_tid372544_thumb.jpg)

*Artist: Retrospective
*Album: Introvert
*Year: 2022
*Genre: Progressive Rock/Metal
*Country: Poland (IMG:https://metalarea.org/forum/style_images/flags/Poland.png)
*Format: mp3@CBR320kbps
*Size: 105MB

Tracklist:
01. Log Out 08:52
02. New Perspective 08:48
03. Invincible Man 04:58
04. Intoxicated Generation 09:51
05. Away 06:52
06. Self-Control 05:29
******************************
Total playing time: 44:50

(IMG:https://metalarea.org/images/youtube.png)
(IMG:https://metalarea.org/images/youtube.png)

Extended info
Jakub Roszak - Vocals
Maciej Klimek - Guitars
Darek Kazmierczak - Guitars
Lukasz Marszalek - Bass
Beata Lagoda - Keyboards, Backing Vocals
Robert Kusik - Drums


Technical info
(IMG:https://metalarea.org/images/spectrogram/2022_Nov/4c310c045745549e57389bfca0a33adc.png)
Input File: 01. Log Out.mp3
Channels : 2
Sample Rate : 44100
Precision : 16-bit
Duration : 00:08:52.09 = 23465345 samples = 39907 CDDA sectors
File Size : 21.3M
Bit Rate : 321k
Sample Encoding: MPEG audio (layer I, II or III)
Comments :
Title=Log Out
Artist=Retrospective
Album=Introvert
Tracknumber=1
Year=2022
Genre=Progressive Metal



Register


Go to the top of the page
  Insert nick Quick quote
+Quote Post
 
Start new topic
Replies (1 - 3)
post Nov 25 2022, 08:40:13
Post #2

Восемь Литров
********
Group: Металариец
Posts: 875
Releases: 0
On Forums: 17 years 5 months
Thanks: 123 time(s)
Russian Federation


Судя по клипам это вообще что то шикарное. Есть полная дискография?
А,все. С рутракера скачал.


Thanks:
(1) Yarri,
Go to the top of the page
  Insert nick Quick quote
+Quote Post
post Nov 29 2022, 19:06:53
Post #3

Восемь Литров
********
Group: Металариец
Posts: 800
Releases: 0
On Forums: 5 years 3 weeks
Thanks: 339 time(s)
Ukraine


Светлая грусть,
Одолела, ну и пусть...
Отличный альбом,
Послушал сегодня вечерком.


Thanks:
(1) Yarri,
Go to the top of the page
  Insert nick Quick quote
+Quote Post
post Feb 25 2023, 09:14:44
Post #4

Мегаманьяк
***********
Group: Металариец
Posts: 1,910
Releases: 105
From: Санкт-Петербург
On Forums: 18 years 1 week
Thanks: 5290 time(s)
Russian Federation


Отличный альбом! Уж насколько я прохладно отношусь к прог-року - нравятся буквально несколько групп - но, слушая этих поляков, каждый раз получаю удовольствие от прослушивания. Очень душевно и красиво.
Go to the top of the page
  Insert nick Quick quote
+Quote Post

Reply to this topicStart new topic
2 User(s) are reading this topic (2 Guests and 0 Anonymous Users)
0 Members:

 



- Lo-Fi Version Support form
Copyrights and abuse reports form
Time is now: 29th May 2024 - 10:46:11