Welcome Guest ( Log In | Register )

Объявления

* gmail.com упорно продолжает считать почту с нас "unsolicited" и отбивает в том числе и письма активации, поэтому просьба использовать альтернативные почтовые ящики.
------------
* gmail.com continues reject all mail from us as "unsolicited" (activation mails too) therefore please use alternate mail servers.
> Critical Extravasation - Order Of Decadence (2022), Technical Death/Thrash Metal
post Nov 18 2022, 14:52:28
Post #1

Правь статус, ####!111
**************
Group: Металариец
Posts: 36,414
Releases: 27151
From: Г.Харьков
On Forums: 12 years 2 months
Thanks: 591390 time(s)
Ukraine


(IMG:https://metalarea.org/images/audiocovers/2022_Nov/acov_tid372559_thumb.jpg)

*Artist: Critical Extravasation
*Album: Order Of Decadence
*Year: 2022
*Genre: Technical Death/Thrash Metal
*Country: Russian Federation (IMG:https://metalarea.org/forum/style_images/flags/Russian%20Federation.png)
*Format: mp3@CBR320kbps
*Size: 77MB

Tracklist:
1. Waltz of Hypocrisy 03:55
2. Clotted Negligence 04:21
3. Doctrine of Atrophy 04:28
4. Feast on Dreams 05:36
5. Redeeming Flames 05:31
6. Devastating Virtue 04:34
7. Derniers Mots 04:26
******************************
Total playing time: 32:51


Preview 2


Extended info
Victor Khaychenko Bass, Vocals (backing)
See also: Daredevil, Dissolution, Sieta, Excruciation by Silence (live), Dissolution, ex-Blood Pollution (live)
Morgoth Hel Drums
See also: Hated, Sieta, ex-Above the Stars
Sergey Stepanenko Guitars, Vocals (backing)
See also: Blood Pollution, Dissolution, Excruciation by Silence, Sieta, Skyglow, ex-Torn Apart
Alexander Mokin Vocals
See also: Sieta, Skyglow


Technical info
(IMG:https://metalarea.org/images/spectrogram/2022_Nov/2412120a0cc2c06305a1d32dbf5319bd.png)
Input File: Critical Extravasation - Order of Decadence - 04 Feast on Dreams.mp3
Channels : 2
Sample Rate : 44100
Precision : 16-bit
Duration : 00:05:35.67 = 14802827 samples = 25174.9 CDDA sectors
File Size : 13.6M
Bit Rate : 325k
Sample Encoding: MPEG audio (layer I, II or III)
Comments :
Title=Feast on Dreams
Artist=Critical Extravasation
Album=Order of Decadence
Tracknumber=4
Year=2022



Register


Go to the top of the page
  Insert nick Quick quote
+Quote Post
 
Start new topic
Replies (1 - 2)
post Nov 19 2022, 09:41:11
Post #2

Правь статус, ####!111
**************
Group: Металариец
Posts: 36,414
Releases: 27151
From: Г.Харьков
On Forums: 12 years 2 months
Thanks: 591390 time(s)
Ukraine


FLAC (Tracks) 402 mb
Register


Thanks:
(2) Marek, wreak,
Go to the top of the page
  Insert nick Quick quote
+Quote Post
post Nov 26 2022, 01:11:20
Post #3

Шесть Литров
******
Group: Металариец
Posts: 591
Releases: 3
From: Санкт-Петербург
On Forums: 16 years 9 months
Thanks: 197 time(s)
Russian Federation


Неплохо.
Go to the top of the page
  Insert nick Quick quote
+Quote Post

Reply to this topicStart new topic
1 User(s) are reading this topic (1 Guests and 0 Anonymous Users)
0 Members:

 



- Lo-Fi Version Support form
Copyrights and abuse reports form
Time is now: 16th July 2024 - 11:27:08