Welcome Guest ( Log In | Register )

Объявления

* gmail.com упорно продолжает считать почту с нас "unsolicited" и отбивает в том числе и письма активации, поэтому просьба использовать альтернативные почтовые ящики.
------------
* gmail.com continues reject all mail from us as "unsolicited" (activation mails too) therefore please use alternate mail servers.
> Dramaturg - Darkness (2022), Black Metal
post Nov 19 2022, 09:03:25
Post #1

Правь статус, ####!111
**************
Group: Металариец
Posts: 9,076
Releases: 7313
On Forums: 13 years 6 months
Thanks: 128790 time(s)
Italy


(IMG:https://metalarea.org/images/audiocovers/2022_Nov/acov_tid372602_thumb.jpg)

*Artist: Dramaturg
*Album: Darkness
*Year: 2022
*Genre: Black Metal
*Country: Russian Federation (IMG:https://metalarea.org/forum/style_images/flags/Russian%20Federation.png)
*Format: mp3@CBR320kbps
*Size: 94MB

Tracklist:
1.Swamp 06:04
2.You Can't Get Away from Yourself 05:53
3.One on One 05:02
4.Werewolf 04:35
5.From Dusk to Dawn 03:55
6.Wolfhound 05:11
7.The World Is Mine 05:04
8.I'm a Legend 05:15
******************************
Total playing time: 40:59



Technical info
(IMG:https://metalarea.org/images/spectrogram/2022_Nov/e23437e6dec8284c0a7c13c897a98def.png)
Input File: 05 From Dusk to Dawn.mp3
Channels : 2
Sample Rate : 44100
Precision : 16-bit
Duration : 00:03:55.72 = 10395208 samples = 17678.9 CDDA sectors
File Size : 9.53M
Bit Rate : 323k
Sample Encoding: MPEG audio (layer I, II or III)
Comments :
Title=From Dusk to Dawn
Artist=DramAturG
Album=DramAturG - Darkness
Tracknumber=5
Year=2022
Genre=Black Metal



Register


Go to the top of the page
  Insert nick Quick quote
+Quote Post
 
Start new topic
Replies (1 - 8)
post Nov 19 2022, 18:27:36
Post #2

Семь Литров
*******
Group: Металариец
Posts: 796
Releases: 77
From: Суворов
On Forums: 6 years 4 months
Thanks: 752 time(s)
Russian Federation


Земляки из Тулы. Надо заценить)
Go to the top of the page
  Insert nick Quick quote
+Quote Post
post Nov 19 2022, 18:28:26
Post #3

? ? ? ? ? ? ?
********
Group: Металариец
Posts: 835
Releases: 25
On Forums: 17 years 3 months
Thanks: 636 time(s)
Russian Federation


Название впечатляет.


Thanks:
Go to the top of the page
  Insert nick Quick quote
+Quote Post
post Nov 19 2022, 18:53:04
Post #4

Override the Overture
*********
Group: Металариец
Posts: 934
Releases: 0
From: Moscow
On Forums: 16 years 5 months
Thanks: 273 time(s)
Russian Federation


ЦИТАТА(Nobrain-Nopain @ Nov 19 2022, 20:28:26) *
Название впечатляет.


название прям в духе Натиска или Эпитафии. Только что шрифт не тот
Go to the top of the page
  Insert nick Quick quote
+Quote Post
post Nov 20 2022, 12:08:16
Post #5

Group: Подсевший
Posts: 41
Releases: 0
From: Москва
On Forums: 3 years 13 hours
Thanks: 48 time(s)
Russian Federation


Когда лирика исполняется на русском языке даже в таких экстремальных стилях, где она на 99% идёт фоновым сопровождением, это особых вопросов не взывает. Непонятно только, зачем названия песен писать на английском, если лирика русская. Логичней было бы, если б писали на обоих языках.
Go to the top of the page
  Insert nick Quick quote
+Quote Post
post Nov 22 2022, 05:06:28
Post #6

Шесть Литров
******
Group: Металариец
Posts: 650
Releases: 18
On Forums: 18 years 2 months
Thanks: 467 time(s)
Russian Federation


ЦИТАТА(Kitalter @ Nov 19 2022, 20:27:36) *
Земляки из Тулы. Надо заценить)

Ну, если земляки, тоже скачиваю, заценю...
Звук неплохой, а тексты ещё послушаем
Go to the top of the page
  Insert nick Quick quote
+Quote Post
post Nov 25 2022, 15:05:57
Post #7

Group: Подсевший
Posts: 37
Releases: 0
On Forums: 15 years 5 months
Thanks: 6 time(s)
Russian Federation


01Топи. 02 От себя не уйти. 03 Один на один. 04 Оборотень. 05 От заката до рассвета. 06 Волкодав.
Go to the top of the page
  Insert nick Quick quote
+Quote Post
post Nov 27 2022, 14:36:19
Post #8

Group: Подсевший
Posts: 37
Releases: 0
On Forums: 15 years 5 months
Thanks: 6 time(s)
Russian Federation


(IMG:style_emoticons/default/pray.gif) бомба
Go to the top of the page
  Insert nick Quick quote
+Quote Post
post Jan 19 2023, 06:37:32
Post #9

i listen to black metal
**************
Group: Металариец
Posts: 4,092
Releases: 150
From: Москва
On Forums: 17 years 5 months
Thanks: 2629 time(s)
Russian Federation


эти уж лучше Демонов гильотины )))
Go to the top of the page
  Insert nick Quick quote
+Quote Post

Reply to this topicStart new topic
1 User(s) are reading this topic (1 Guests and 0 Anonymous Users)
0 Members:

 



- Lo-Fi Version Support form
Copyrights and abuse reports form
Time is now: 13th June 2024 - 09:02:54