Welcome Guest ( Log In | Register )

Объявления

* gmail.com упорно продолжает считать почту с нас "unsolicited" и отбивает в том числе и письма активации, поэтому просьба использовать альтернативные почтовые ящики.
------------
* gmail.com continues reject all mail from us as "unsolicited" (activation mails too) therefore please use alternate mail servers.
> Framing Skeletons - Luminescence (2021), Progressive Metal
post Nov 19 2022, 16:04:08
Post #1

21st Century Schizoid Man
**************
Group: Металариец
Posts: 8,552
Releases: 354
From: 1984
On Forums: 16 years 2 months
Thanks: 9774 time(s)
Unknown


(IMG:https://metalarea.org/images/audiocovers/2022_Nov/acov_tid372616_thumb.jpg)

*Artist: Framing Skeletons
*Album: Luminescence
*Year: 2021
*Genre: Progressive Metal
*Country: United States (IMG:https://metalarea.org/forum/style_images/flags/United%20States.png)
*Format: mp3@CBR320kbps
*Size: 91MB

Tracklist:
01. Change The Channel 03:12
02. I. The Pariah 03:36
03. II. The Progression 08:21
04. Flight In The Failing Knot 04:17
05. Your Vessel 05:57
06. III. The Passing 07:57
07. IV. Rising Dragon 06:02
******************************
Total playing time: 39:22


(IMG:https://metalarea.org/images/youtube.png)
(IMG:https://metalarea.org/images/youtube.png)
(IMG:https://metalarea.org/images/youtube.png)
(IMG:https://metalarea.org/images/youtube.png)

Extended info
Jeremy Burke - Vocals, Guitars
Ethan Berry - Bass, Backing Vocals
Bryan Holub - Drums, Backing Vocals


Technical info
(IMG:https://metalarea.org/images/spectrogram/2022_Nov/e8a33221ac3b84c429dd0529f63b622d.png)
Input File: 01. Change the Channel.mp3
Channels : 2
Sample Rate : 44100
Precision : 16-bit
Duration : 00:03:12.64 = 8495424 samples = 14448 CDDA sectors
File Size : 7.71M
Bit Rate : 320k
Sample Encoding: MPEG audio (layer I, II or III)
Comments :
Title=Change the Channel
Artist=Framing Skeletons
Album=Luminescence
Tracknumber=1
Year=2021
Genre=Progressive Metal



Register


Go to the top of the page
  Insert nick Quick quote
+Quote Post
 
Start new topic
Replies (1 - 2)
post Dec 1 2022, 11:39:24
Post #2

Восемь Литров
********
Group: Металариец
Posts: 890
Releases: 0
On Forums: 17 years 6 months
Thanks: 123 time(s)
Russian Federation


Качественный неклассический прог рок\метал с очень депрессивным настроением. К сожалению. Из ассоциаций: VOLA, Chevelle, Opeth, Katatonia.


Thanks:
(1) Yarri,
Go to the top of the page
  Insert nick Quick quote
+Quote Post
post Dec 1 2022, 11:53:37
Post #3

Аннигилятор пивА
Group Icon
Group: V.I.P
Posts: 52,572
Releases: 16538
From: Koenigsberg - TILZIT
On Forums: 18 years 1 month
Thanks: 372072 time(s)
Russian Federation


К сожалению бодрых тяжелых моментов на альбоме минимум, будь энергетика как в 5 трэке былаб бомба, в 7 развитие интересное, но для меня в целом слащаво слишком, есть любопытные места, есть что послушать в общем, особенно связка трех последних трэков


Thanks:
(1) Yarri,
Go to the top of the page
  Insert nick Quick quote
+Quote Post

Reply to this topicStart new topic
1 User(s) are reading this topic (1 Guests and 0 Anonymous Users)
0 Members:

 



- Lo-Fi Version Support form
Copyrights and abuse reports form
Time is now: 19th July 2024 - 13:12:40