Welcome Guest ( Log In | Register )

Объявления

* gmail.com упорно продолжает считать почту с нас "unsolicited" и отбивает в том числе и письма активации, поэтому просьба использовать альтернативные почтовые ящики.
------------
* gmail.com continues reject all mail from us as "unsolicited" (activation mails too) therefore please use alternate mail servers.
> Corporain - Purge//Purity (2021), Progressive Metal/Rock
post Nov 19 2022, 17:51:59
Post #1

21st Century Schizoid Man
**************
Group: Металариец
Posts: 8,552
Releases: 354
From: 1984
On Forums: 16 years 2 months
Thanks: 9774 time(s)
Unknown


(IMG:https://metalarea.org/images/audiocovers/2022_Nov/acov_tid372618_thumb.jpg)

*Artist: Corporain
*Album: Purge//Purity
*Year: 2021
*Genre: Progressive Metal/Rock
*Country: Italy (IMG:https://metalarea.org/forum/style_images/flags/Italy.png)
*Format: mp3@CBR320kbps
*Size: 117MB

Tracklist:
01. Millenium 02:26
02. Inception 04:29
03. The Purge 04:42
04. Apocalypse 06:57
05. Hollow 06:52
06. Pitch Black 05:17
07. Never Forget 07:15
08. Rage 05:34
09. Whispering The Wind 07:12
******************************
Total playing time: 50:44

(IMG:https://metalarea.org/images/youtube.png)
(IMG:https://metalarea.org/images/youtube.png)

Technical info
(IMG:https://metalarea.org/images/spectrogram/2022_Nov/cd4649ce1cc30107f7d329b1d2ad0c36.png)
Input File: 01. Millenium.mp3
Channels : 2
Sample Rate : 44100
Precision : 16-bit
Duration : 00:02:26.17 = 6445921 samples = 10962.5 CDDA sectors
File Size : 5.85M
Bit Rate : 320k
Sample Encoding: MPEG audio (layer I, II or III)
Comments :
Title=Millenium
Artist=Corporain
Album=Purge//Purity
Tracknumber=1
Year=2021
Genre=Progressive Metal



Register


Thanks:
Go to the top of the page
  Insert nick Quick quote
+Quote Post
 
Start new topic
Replies (1 - 1)
post Dec 1 2022, 11:50:33
Post #2

Восемь Литров
********
Group: Металариец
Posts: 890
Releases: 0
On Forums: 17 years 6 months
Thanks: 123 time(s)
Russian Federation


Судя по клипам что то второсортное.
Go to the top of the page
  Insert nick Quick quote
+Quote Post

Reply to this topicStart new topic
1 User(s) are reading this topic (1 Guests and 0 Anonymous Users)
0 Members:

 



- Lo-Fi Version Support form
Copyrights and abuse reports form
Time is now: 19th July 2024 - 12:57:42