Welcome Guest ( Log In | Register )

Объявления

* gmail.com упорно продолжает считать почту с нас "unsolicited" и отбивает в том числе и письма активации, поэтому просьба использовать альтернативные почтовые ящики.
------------
* gmail.com continues reject all mail from us as "unsolicited" (activation mails too) therefore please use alternate mail servers.
> Sullen - Nodus Tollens - Act 1: Oblivion [ep] (2021), Progressive Metal
post Nov 19 2022, 18:50:03
Post #1

21st Century Schizoid Man
**************
Group: Металариец
Posts: 8,552
Releases: 354
From: 1984
On Forums: 16 years 2 months
Thanks: 9774 time(s)
Unknown


(IMG:https://metalarea.org/images/audiocovers/2022_Nov/acov_tid372622_thumb.jpg)

*Artist: Sullen
*Album: Nodus Tollens - Act 1: Oblivion [ep]
*Year: 2021
*Genre: Progressive Metal
*Country: Portugal (IMG:https://metalarea.org/forum/style_images/flags/Portugal.png)
*Format: mp3@CBR320kbps
*Size: 77MB

Tracklist:
01. The Prodigal Son 04:28
02. Skylines 04:23
03. Soul Interrupted 01:46
04. Acheronta Movebo 05:33
05. Memento 04:24
06. Human 03:08
07. The After 02:31
08. Fail-Safe 06:53
******************************
Total playing time: 33:06


(IMG:https://metalarea.org/images/youtube.png)

Extended info
David Pais - Vocals
André Ribeiro - Guitar
Pedro Mendes - Guitar
Ricardo Pinto - Bass
Marcelo Aires - Drums & Keys


Technical info
(IMG:https://metalarea.org/images/spectrogram/2022_Nov/ffb867fd863956dff12c6809aa9301f7.png)
Input File: 01. The Prodigal Son.mp3
Channels : 2
Sample Rate : 44100
Precision : 16-bit
Duration : 00:04:28.95 = 11860607 samples = 20171.1 CDDA sectors
File Size : 10.8M
Bit Rate : 320k
Sample Encoding: MPEG audio (layer I, II or III)
Comments :
Title=The Prodigal Son
Artist=Sullen
Album=Nodus Tollens - Act I: Oblivion
Tracknumber=1
Year=2021
Genre=Progressive Metal



Register


Go to the top of the page
  Insert nick Quick quote
+Quote Post
 
Start new topic
Replies (1 - 1)
post Dec 1 2022, 12:16:11
Post #2

Восемь Литров
********
Group: Металариец
Posts: 890
Releases: 0
On Forums: 17 years 6 months
Thanks: 123 time(s)
Russian Federation


Музыка хорошая, вокальные партии и сопровождающая их гитара - полный отстой. И опять челкастое нытье на одной ноте, совсем не совпадающее с основным мотивом. Из-за этого весь альбом превращается в одну сплошную вокальную тягомотину. Причем незапоминающуюся. Грубый вокал есть, музло достойное есть, но полимеры просраны.
Спасибо что не на португальском.
Go to the top of the page
  Insert nick Quick quote
+Quote Post

Reply to this topicStart new topic
1 User(s) are reading this topic (1 Guests and 0 Anonymous Users)
0 Members:

 



- Lo-Fi Version Support form
Copyrights and abuse reports form
Time is now: 19th July 2024 - 12:50:10