Welcome Guest ( Log In | Register )

Объявления

* gmail.com упорно продолжает считать почту с нас "unsolicited" и отбивает в том числе и письма активации, поэтому просьба использовать альтернативные почтовые ящики.
------------
* gmail.com continues reject all mail from us as "unsolicited" (activation mails too) therefore please use alternate mail servers.
> The King's Head - The King's Head (2020), Progressive Heavy Metal
post Nov 19 2022, 19:57:33
Post #1

21st Century Schizoid Man
**************
Group: Металариец
Posts: 8,450
Releases: 318
From: 1984
On Forums: 16 years 3 weeks
Thanks: 9409 time(s)
Unknown


(IMG:https://metalarea.org/images/audiocovers/2022_Nov/acov_tid372628_thumb.jpg)

*Artist: The King's Head
*Album: The King's Head
*Year: 2020
*Genre: Progressive Heavy Metal
*Country: Netherlands (IMG:https://metalarea.org/forum/style_images/flags/Netherlands.png)
*Format: mp3@CBR320kbps
*Size: 110MB

Tracklist:
01. Rise 03:22
02. The Far Beyond 03:33
03. The Fall 05:07
04. Anymore 03:46
05. Older 04:29
06. Miss Comprehension 04:35
07. Borderline 04:02
08. Should I Be Home 03:21
09. Mountainess 05:09
10. Waiting 04:45
11. The White Horse 05:32
******************************
Total playing time: 47:41


(IMG:https://metalarea.org/images/youtube.png)
(IMG:https://metalarea.org/images/youtube.png)
(IMG:https://metalarea.org/images/youtube.png)
(IMG:https://metalarea.org/images/youtube.png)

Extended info
Tim van Bokhoven - vocals, guitar
Koen Koniuszek - lead guitar
Jasper van der Hoeven - bass and vocals
Chris Stadhouders - drums


Technical info
(IMG:https://metalarea.org/images/spectrogram/2022_Nov/6351bd9a706a07e6dbcb8534c23c2d3b.png)
Input File: 02. The Far Beyond.mp3
Channels : 2
Sample Rate : 44100
Precision : 16-bit
Duration : 00:03:33.98 = 9436694 samples = 16048.8 CDDA sectors
File Size : 8.56M
Bit Rate : 320k
Sample Encoding: MPEG audio (layer I, II or III)
Comments :
Title=The Far Beyond
Artist=The King's Head
Album=The King's Head
Tracknumber=2
Year=2020
Genre=Heavy Metal



Register


Go to the top of the page
  Insert nick Quick quote
+Quote Post
 
Start new topic
Replies (1 - 1)
post Dec 7 2022, 10:44:13
Post #2

Восемь Литров
********
Group: Металариец
Posts: 875
Releases: 0
On Forums: 17 years 5 months
Thanks: 123 time(s)
Russian Federation


Скукотища какая то...


Thanks:
(1) andgrek28,
Go to the top of the page
  Insert nick Quick quote
+Quote Post

Reply to this topicStart new topic
2 User(s) are reading this topic (2 Guests and 0 Anonymous Users)
0 Members:

 



- Lo-Fi Version Support form
Copyrights and abuse reports form
Time is now: 29th May 2024 - 10:18:44