Welcome Guest ( Log In | Register )

> Releases Upload / Добавление релизов

Добавить релиз тут / Click here to add release
Рекомендованные обменники / Recommended file shares

> Fortíð - Dómur Um Dauðan Hvern [ep] (2022), Viking/Black Metal
post Nov 20 2022, 11:27:25
Post #1

Absorbence
**************
Group: Металариец
Posts: 2,158
Releases: 437
From: Vastland Abyss of Cthulhu
On Forums: 16 years 3 weeks
Thanks: 7512 time(s)
United States


(IMG:https://metalarea.org/images/audiocovers/2022_Nov/acov_tid372656_thumb.jpg)

*Artist: Fortíð
*Album: Dómur Um Dauðan Hvern [ep]
*Year: 2022
*Genre: Viking/Black Metal
*Country: Iceland (IMG:https://metalarea.org/forum/style_images/flags/Iceland.png)
*Format: mp3@VBR264kbps
*Size: 29MB

Tracklist:
1. För 07:54
2. Fimbulvetur 08:00
******************************
Total playing time: 15:54



Extended info
With their two-track EP "Domur um dauðan hvern" ("Judgement of Everyone
Dead"), FORTÍÐ sent out an impressive sign of life. The Icelandic pagan
black metal outfit continues in the massive footprints that their current
album "World Serpent" has left. Epic Icelandic melodies, sharp riffing
that draws from black, death, thrash, and heavy metal as well as Einar
Eldur Thorberg's distinct vocals combine into fiery and spirited new
songs. Instead of twiddling thumbs while stuck at home, FORTÍÐ decided to
hone their weapons by writing new material and to weather out the global
storm season in their rehearsal room and later in the studio to make the
best out of the situation. The first new songs on "Domur um dauðan hvern"
demonstrate that "World Serpent" was not an accidental success, but that
this album represents a new height, which the Icelanders, with many years
of experience under their belts and still burning with passion, have
securely reached and hold on to. With Einar firmly at the helm, the
Icelanders are still following the course that he set on the "Voeluspa"-
trilogy of albums from 2003 to 2010. Their combination of harsh black and
death metal riffing with a pinch of thrash and a penchant for epic
melodies, versatile vocals as well as a heavy dose of "Icelandic sound"
was maintained on the acclaimed "Pagan Prophecies" (2012) full-length and
the following "9" (2015) album as well, which finally led to the dark and
deadly "World Serpent" being unleashed onto the pagan metal world. Far
from being satisfied with their latest achievements, FORTÍÐ are preparing
for their next attack. "Domur um dauðan hvern" is a strong omen for those
ravens of the north to embark on another metal journey filled with heavy
glory, riffs of ice, and steel-strings!


Technical info
(IMG:https://metalarea.org/images/spectrogram/2022_Nov/66a071c77a71062008e55f28ae845a47.png)
Input File: 2. Fimbulvetur.mp3
Channels : 2
Sample Rate : 48000
Precision : 16-bit
Duration : 00:07:58.03 = 22945536 samples ~ 35852.4 CDDA sectors
File Size : 15.9M
Bit Rate : 265k
Sample Encoding: MPEG audio (layer I, II or III)
Comments :
Title=Fimbulvetur
Artist=Fortíð
Album=Dómur um dauðan hvern
Tracknumber=2/2
Year=2022
Genre=138



Register


Go to the top of the page
  Insert nick Quick quote
+Quote Post
 
Start new topic
Replies (1 - 4)
post Nov 21 2022, 12:56:17
Post #2
BAN
RO till
Dec 7 2022, 19:26:25



Исландские вЫкинги на двух треках порвались.
Go to the top of the page
  Insert nick Quick quote
+Quote Post
post Nov 24 2022, 13:06:20
Post #3

Мегаманьяк
***********
Group: Металариец
Posts: 1,638
Releases: 0
From: Russian Federation - St.Petersburg
On Forums: 13 years 9 months
Thanks: 464 time(s)
Russian Federation


М-да, хорошо но мало! (IMG:style_emoticons/default/hmm.gif)
Go to the top of the page
  Insert nick Quick quote
+Quote Post
post Nov 24 2022, 13:20:23
Post #4

Group: Подсевший
Posts: 29
Releases: 0
On Forums: 2 years 10 months
Thanks: 9 time(s)
Unknown


QUOTE(Olrak @ Nov 24 2022, 13:06:20) *
М-да, хорошо но мало! (IMG:style_emoticons/default/hmm.gif)


Лучше меньше да лучше как говорил один вождь пролетариата.
Go to the top of the page
  Insert nick Quick quote
+Quote Post
post Nov 24 2022, 15:01:16
Post #5

Мегаманьяк
***********
Group: Металариец
Posts: 1,638
Releases: 0
From: Russian Federation - St.Petersburg
On Forums: 13 years 9 months
Thanks: 464 time(s)
Russian Federation


ЦИТАТА(mightynorth @ Nov 24 2022, 15:20:23) *
Лучше меньше да лучше как говорил один вождь пролетариата.

Это точно!
Псы-псы,
Предыдущий полноформатник по бандкампу хорош! Эхх, кто бы ссылочку на него запостил... (IMG:style_emoticons/default/smile1.gif)

Go to the top of the page
  Insert nick Quick quote
+Quote Post

Reply to this topicStart new topic
2 User(s) are reading this topic (2 Guests and 0 Anonymous Users)
0 Members:

 



- Lo-Fi Version Support form
Copyrights and abuse reports form
Time is now: 2nd December 2022 - 11:30:03