Welcome Guest ( Log In | Register )

Объявления

* gmail.com упорно продолжает считать почту с нас "unsolicited" и отбивает в том числе и письма активации, поэтому просьба использовать альтернативные почтовые ящики.
------------
* gmail.com continues reject all mail from us as "unsolicited" (activation mails too) therefore please use alternate mail servers.
> Whirlwind - 1714 (2022), Heavy Metal
post Nov 22 2022, 08:45:13
Post #1

Правь статус, ####!111
**************
Group: Металариец
Posts: 9,111
Releases: 7346
On Forums: 13 years 7 months
Thanks: 129320 time(s)
Italy


(IMG:https://metalarea.org/images/audiocovers/2022_Nov/acov_tid372741_thumb.jpg)

*Artist: Whirlwind
*Album: 1714
*Year: 2022
*Genre: Heavy Metal
*Country: Spain (IMG:https://metalarea.org/forum/style_images/flags/Spain.png)
*Format: mp3@CBR320kbps
*Size: 125MB

Tracklist:
01.1714 (Intro) 01:37
02.The Call 06:33
03.Under Siege 04:12
04.Rebels Arise! 03:45
05.Torture, Knife & Fire 04:38
06.Gallows Tithe 04:21
07.Cannons of Infuriation 05:44
08.The Bastard Duke 04:38
09.Immortal Heroes 05:27
10.Red September 04:51
11.Echoes of Time 05:19
******************************
Total playing time: 51:05



Extended info
1st album by this spanish Heavy Metal band with a good dose of RUNNING WILD in their sound.


Technical info
(IMG:https://metalarea.org/images/spectrogram/2022_Nov/5c55f539d070ebbf7790e16742f989c7.png)
Input File: 04 - Rebels Arise!.mp3
Channels : 2
Sample Rate : 44100
Precision : 16-bit
Duration : 00:03:45.00 = 9922500 samples = 16875 CDDA sectors
File Size : 9.36M
Bit Rate : 333k
Sample Encoding: MPEG audio (layer I, II or III)
Comments :
Title=Rebels Arise!
Artist=Whirlwind
Album=1714
Tracknumber=4
Year=2022-11-22
Genre=Rock
Discnumber=1



Register


Go to the top of the page
  Insert nick Quick quote
+Quote Post
 
Start new topic
Replies (1 - 2)
post Nov 24 2022, 19:03:47
Post #2

Common dweller of hell
**************
Group: Металариец
Posts: 5,440
Releases: 12
From: Dnipro
On Forums: 15 years 11 months
Thanks: 2205 time(s)
Ukraine


Прям музыка родом из средины-конца 80-ых.
Go to the top of the page
  Insert nick Quick quote
+Quote Post
post Nov 26 2022, 00:19:36
Post #3

А воин шепчет в ответ
******
Group: Металариец
Posts: 529
Releases: 0
On Forums: 6 years 4 months
Thanks: 188 time(s)
Saint Helena


ЦИТАТА(isvili @ Nov 24 2022, 19:03:47) *
Прям музыка родом из средины-конца 80-ых.

Зато не на испанском (IMG:style_emoticons/default/fear.gif)
Go to the top of the page
  Insert nick Quick quote
+Quote Post

Reply to this topicStart new topic
1 User(s) are reading this topic (1 Guests and 0 Anonymous Users)
0 Members:

 



- Lo-Fi Version Support form
Copyrights and abuse reports form
Time is now: 18th June 2024 - 16:43:18