Welcome Guest ( Log In | Register )

> Releases Upload / Добавление релизов

Добавить релиз тут / Click here to add release
Рекомендованные обменники / Recommended file shares

 
Reply to this topicStart new topic
> Darkhammer - Possessed By Death [ep] (2022), Black/Thrash Metal
post Nov 22 2022, 15:00:24
Post #1

Правь статус, ####!111
**************
Group: Металариец
Posts: 30,908
Releases: 22779
From: Г.Харьков
On Forums: 10 years 6 months
Thanks: 476821 time(s)
Unknown


(IMG:http://metalarea.org/images/audiocovers/2022_Nov/acov_tid372746_thumb.jpg)

*Artist: Darkhammer
*Album: Possessed By Death [ep]
*Year: 2022
*Genre: Black/Thrash Metal
*Country: Brazil (IMG:http://metalarea.org/forum/style_images/flags/Brazil.png)
*Format: mp3@CBR320kbps
*Size: 59MB

Tracklist:
1. Intro/Devastation 02:22
2. We are All in Hell 02:42
3. Evil to the God 03:03
4. Afterdeath 03:00
5. Possessed by Death 02:57
6. Fuck Jesus Christ 04:27
7. Freezing Moon (Mayhem cover) 06:31
******************************
Total playing time: 25:02




Extended info
Lucas Jhones - Guitars and Vocals
L.Blanco - Bass
Vitor Hugo - Drums


Technical info
(IMG:http://metalarea.org/images/spectrogram/2022_Nov/44059ed984b96c51c34cdb70dbb9a271.png)
Input File: 06 - Fuck Jesus Christ.mp3
Channels : 2
Sample Rate : 44100
Precision : 16-bit
Duration : 00:04:27.00 = 11774700 samples = 20025 CDDA sectors
File Size : 10.9M
Bit Rate : 327k
Sample Encoding: MPEG audio (layer I, II or III)
Comments :
Title=Fuck Jesus Christ
Artist=Darkhammer
Album=Possessed by Death
Tracknumber=6
Year=2022-11-11
Genre=Metal
Discnumber=1



Register


Go to the top of the page
  Insert nick Quick quote
+Quote Post

Reply to this topicStart new topic
1 User(s) are reading this topic (1 Guests and 0 Anonymous Users)
0 Members:

 



- Lo-Fi Version Support form
Copyrights and abuse reports form
Time is now: 2nd December 2022 - 10:33:14