Welcome Guest ( Log In | Register )

> Releases Upload / Добавление релизов

Добавить релиз тут / Click here to add release
Рекомендованные обменники / Recommended file shares

 
Reply to this topicStart new topic
> Parom - Domovina (2022), Pagan/Folk Metal (D4)
post Nov 22 2022, 15:50:59
Post #1

Правь статус, ####!111
**************
Group: Металариец
Posts: 4,111
Releases: 2553
On Forums: 12 years 2 weeks
Thanks: 46979 time(s)
Russian Federation


(IMG:https://metalarea.org/images/audiocovers/2022_Nov/acov_tid372747_thumb.jpg)

*Artist: Parom
*Album: Domovina
*Year: 2022
*Genre: Pagan/Folk Metal
*Country: Slovakia (IMG:https://metalarea.org/forum/style_images/flags/Slovakia.png)
*Format: mp3@CBR320kbps
*Size: 77MB

Tracklist:
1.Hora mocná, hora zelená 05:52
2.Sláva rodu 03:16
3.Slovanská krv 02:54
4.Zima 04:52
5.Domovina 06:04
6.Pravda 06:40
7.Kukučka 04:05
******************************
Total playing time: 33:43

(IMG:https://metalarea.org/images/youtube.png)

Technical info
(IMG:https://metalarea.org/images/spectrogram/2022_Nov/759862313d8643c48695c546d01adc30.png)
Input File: 02 - Sláva rodu.mp3
Channels : 2
Sample Rate : 44100
Precision : 16-bit
Duration : 00:03:15.59 = 8625299 samples = 14668.9 CDDA sectors
File Size : 7.88M
Bit Rate : 322k
Sample Encoding: MPEG audio (layer I, II or III)
Comments :
Title=Sláva rodu
Artist=Parom
Album=Domovina
Tracknumber=02
Year=2022
Genre=Pagan/Folk Metal



Register


Go to the top of the page
  Insert nick Quick quote
+Quote Post

Reply to this topicStart new topic
1 User(s) are reading this topic (1 Guests and 0 Anonymous Users)
0 Members:

 



- Lo-Fi Version Support form
Copyrights and abuse reports form
Time is now: 2nd December 2022 - 10:48:59