Welcome Guest ( Log In | Register )

> Releases Upload / Добавление релизов

Добавить релиз тут / Click here to add release
Рекомендованные обменники / Recommended file shares

 
Reply to this topicStart new topic
> Babymetal - Monochrome [single] (2022), Kawaii/Extreme Metal (D10)
post Nov 22 2022, 16:34:38
Post #1

Правь статус, ####!111
**************
Group: Металариец
Posts: 4,111
Releases: 2553
On Forums: 12 years 2 weeks
Thanks: 46981 time(s)
Russian Federation


(IMG:https://metalarea.org/images/audiocovers/2022_Nov/acov_tid372748_thumb.jpg)

*Artist: Babymetal
*Album: Monochrome [single]
*Year: 2022
*Genre: Kawaii/Extreme Metal
*Country: Japan (IMG:https://metalarea.org/forum/style_images/flags/Japan.png)
*Format: mp3@CBR320kbps
*Size: 10MB

Tracklist:
1.Monochrome 03:57
******************************
Total playing time: 3:57

(IMG:https://metalarea.org/images/youtube.png)

Technical info
(IMG:https://metalarea.org/images/spectrogram/2022_Nov/66c34e24b9cd56d44443ce7c60e13982.png)
Input File: 01-Monochrome.mp3
Channels : 2
Sample Rate : 44100
Precision : 16-bit
Duration : 00:03:57.44 = 10471236 samples = 17808.2 CDDA sectors
File Size : 10.3M
Bit Rate : 346k
Sample Encoding: MPEG audio (layer I, II or III)
Comments :
Title=Monochrome
Artist=Babymetal
Album=Monochrome
Tracknumber=01
Year=2022
Genre=Metal



Register


Go to the top of the page
  Insert nick Quick quote
+Quote Post

Reply to this topicStart new topic
1 User(s) are reading this topic (1 Guests and 0 Anonymous Users)
0 Members:

 



- Lo-Fi Version Support form
Copyrights and abuse reports form
Time is now: 2nd December 2022 - 11:04:25