Welcome Guest ( Log In | Register )

> Releases Upload / Добавление релизов

Добавить релиз тут / Click here to add release
Рекомендованные обменники / Recommended file shares

 
Reply to this topicStart new topic
> Bad Luck Rides On Wheels - Serpentine (2013), Sludge/Doom Metal (D4)
post Nov 22 2022, 16:49:35
Post #1

Serial Uploader
Group Icon
Group: V.I.P
Posts: 39,314
Releases: 37426
From: Lithuania
On Forums: 14 years 5 months
Thanks: 469414 time(s)
Lithuania


(IMG:https://metalarea.org/images/audiocovers/2022_Nov/acov_tid372749_thumb.jpg)

*Artist: Bad Luck Rides On Wheels
*Album: Serpentine
*Year: 2013
*Genre: Sludge/Doom Metal
*Country: Germany (IMG:https://metalarea.org/forum/style_images/flags/Germany.png)
*Format: mp3@CBR320kbps
*Size: 111MB

Tracklist:
1. Virus 14:07
2. Serpentine 02:03
3. Mea Culpa 09:44
4. Desespero 10:43
5. Flood 11:42
******************************
Total playing time: 48:19

(IMG:https://metalarea.org/images/myspace.png)


(IMG:https://metalarea.org/images/youtube.png)

Extended info
Exclusive for Metalarea.org


Technical info
(IMG:https://metalarea.org/images/spectrogram/2022_Nov/d81f0ab36508586e61a4539016004a5d.png)
Input File: 05. Flood.mp3
Channels : 2
Sample Rate : 44100
Precision : 16-bit
Duration : 00:11:42.26 = 30969754 samples = 52669.6 CDDA sectors
File Size : 28.2M
Bit Rate : 321k
Sample Encoding: MPEG audio (layer I, II or III)
Comments :
Title=Flood
Artist=Bad Luck Rides On Wheels
Album=Serpentine
Tracknumber=5
Year=2013



Register


Go to the top of the page
  Insert nick Quick quote
+Quote Post

Reply to this topicStart new topic
1 User(s) are reading this topic (1 Guests and 0 Anonymous Users)
0 Members:

 



- Lo-Fi Version Support form
Copyrights and abuse reports form
Time is now: 2nd December 2022 - 11:21:01