Welcome Guest ( Log In | Register )

> Releases Upload / Добавление релизов

Добавить релиз тут / Click here to add release
Рекомендованные обменники / Recommended file shares

 
Reply to this topicStart new topic
> Bad Luck Rides On Wheels - Semper Eadem (2020), Sludge/Doom Metal (D4)
post Nov 22 2022, 17:01:17
Post #1

Serial Uploader
Group Icon
Group: V.I.P
Posts: 39,314
Releases: 37426
From: Lithuania
On Forums: 14 years 5 months
Thanks: 469413 time(s)
Lithuania


(IMG:https://metalarea.org/images/audiocovers/2022_Nov/acov_tid372750_thumb.jpg)

*Artist: Bad Luck Rides On Wheels
*Album: Semper Eadem
*Year: 2020
*Genre: Sludge/Doom Metal
*Country: Germany (IMG:https://metalarea.org/forum/style_images/flags/Germany.png)
*Format: mp3@CBR320kbps
*Size: 126MB

Tracklist:
1. Le Livre Du Ciel Et Du Monde 12:30
2. Semper Eadem 08:13
3. Heart Gathered Grapes Of Ignorance 07:16
4. To Thy Cross 11:43
5. Monocelestial Chords 15:33
******************************
Total playing time: 55:15

(IMG:https://metalarea.org/images/myspace.png)


(IMG:https://metalarea.org/images/youtube.png)

Extended info
Exclusive for Metalarea.org


Technical info
(IMG:https://metalarea.org/images/spectrogram/2022_Nov/b589fc238d537ac71c1a07b6b585c13c.png)
Input File: 01. Le Livre du Ciel et du Monde.mp3
Channels : 2
Sample Rate : 44100
Precision : 16-bit
Duration : 00:12:30.49 = 33096477 samples = 56286.5 CDDA sectors
File Size : 30.1M
Bit Rate : 321k
Sample Encoding: MPEG audio (layer I, II or III)
Comments :
Title=Le Livre du Ciel et du Monde
Artist=Bad Luck Rides On Wheels
Album=Semper Eadem
Tracknumber=1
Year=2020



Register


Go to the top of the page
  Insert nick Quick quote
+Quote Post

Reply to this topicStart new topic
1 User(s) are reading this topic (1 Guests and 0 Anonymous Users)
0 Members:

 



- Lo-Fi Version Support form
Copyrights and abuse reports form
Time is now: 2nd December 2022 - 10:23:06