Welcome Guest ( Log In | Register )

> Releases Upload / Добавление релизов

Добавить релиз тут / Click here to add release
Рекомендованные обменники / Recommended file shares

 
Reply to this topicStart new topic
> Folly - Oubliette (2022), Avant-Garde Black Metal
post Nov 22 2022, 17:06:20
Post #1

Правь статус, ####!111
**************
Group: Металариец
Posts: 4,111
Releases: 2553
On Forums: 12 years 2 weeks
Thanks: 46974 time(s)
Russian Federation


(IMG:https://metalarea.org/images/audiocovers/2022_Nov/acov_tid372751_thumb.jpg)

*Artist: Folly
*Album: Oubliette
*Year: 2022
*Genre: Avant-Garde Black Metal
*Country: United States (IMG:https://metalarea.org/forum/style_images/flags/United%20States.png)
*Format: mp3@CBR320kbps
*Size: 134MB

Tracklist:
1.Death Bore a Hole Through the Stars 08:41
2.Flies Make the Moulding, Make the Mantle 09:21
3.Firmament 08:41
4.Swathe 08:38
5.The Penumbral Kiss on the Gangrene Eye 10:13
6.Ill-Smelling Body of the City 12:50
******************************
Total playing time: 58:24



Technical info
(IMG:https://metalarea.org/images/spectrogram/2022_Nov/22e8a3b69fd8c509c8219e932342f806.png)
Input File: 01 Death Bore a Hole Through the Stars.mp3
Channels : 2
Sample Rate : 44100
Precision : 16-bit
Duration : 00:08:41.62 = 23003398 samples = 39121.4 CDDA sectors
File Size : 21.1M
Bit Rate : 323k
Sample Encoding: MPEG audio (layer I, II or III)
Comments :
Title=Death Bore a Hole Through the Stars
Artist=Folly
Album=Oubliette
Tracknumber=01
Year=2022
Genre=Avant-garde Black Metal



Register


Go to the top of the page
  Insert nick Quick quote
+Quote Post

Reply to this topicStart new topic
1 User(s) are reading this topic (1 Guests and 0 Anonymous Users)
0 Members:

 



- Lo-Fi Version Support form
Copyrights and abuse reports form
Time is now: 2nd December 2022 - 10:39:23