Welcome Guest ( Log In | Register )

 
Reply to this topicStart new topic
> Esfinge De Gizeh - Hacia El Valle De Los Reyes Ii - El Despertar De Los Faraones (2006), Progressive Folk Heavy/Black Metal
post Nov 22 2022, 17:19:25
Post #1

Group: Подсевший
Posts: 22
Releases: 7
From: Caracas (VEN) now Santiago (CHI)
On Forums: 13 years 1 month
Thanks: 81 time(s)
Venezuela


(IMG:https://metalarea.org/images/audiocovers/2022_Nov/acov_tid372752_thumb.jpg)

*Artist: Esfinge De Gizeh
*Album: Hacia El Valle De Los Reyes Ii - El Despertar De Los Faraones
*Year: 2006
*Genre: Progressive Folk Heavy/Black Metal
*Country: Venezuela (IMG:https://metalarea.org/forum/style_images/flags/Venezuela.png)
*Format: mp3@CBR192kbps
*Size: 96MB

Tracklist:
1. La caída de Seth (El triunfo de Horus) 05:49
2. La leyenda de Osiris 04:21
3. Hijos de Rá 05:08
4. La maldición de Tutankhamón 05:38
5. Amón, el inescrutable 04:39
6. El Tit de Isis 04:58
7. Horus, el dios halcón 05:29
8. Hatshepsut, la reina faraón 04:56
9. La batalla de Kadesh 04:43
10. El conjuro de Anubis 06:01
11. El sueño de Thutmosis IV... El renacer de la Esfinge 07:16
12. Esfinge de Gizeh 04:53
13. Almas oscuras 07:07
******************************
Total playing time: 1:10:58

Technical info
(IMG:https://metalarea.org/images/spectrogram/2022_Nov/28acee2c7be416a405229b06b96c3208.png)
Input File: 02 - La Resurreción De Khenti Amenti-La Leyenda De Osiris.mp3
Channels : 2
Sample Rate : 48000
Precision : 16-bit
Duration : 00:04:21.96 = 12574320 samples ~ 19647.4 CDDA sectors
File Size : 6.36M
Bit Rate : 194k
Sample Encoding: MPEG audio (layer I, II or III)
Comments :
Title=La Resurreción De Khenti Amenti-La Leyenda De Osiris
Artist=Esfinge De Gizeh
Album=Hacia El Valle De Los Reyes II - El Despertar De Los Faraones
Tracknumber=2
Year=2006



Register


Thanks:
Go to the top of the page
  Insert nick Quick quote
+Quote Post

Reply to this topicStart new topic
1 User(s) are reading this topic (1 Guests and 0 Anonymous Users)
0 Members:

 



- Lo-Fi Version Support form
Copyrights and abuse reports form
Time is now: 2nd December 2022 - 10:56:39