Welcome Guest ( Log In | Register )

> Releases Upload / Добавление релизов

Добавить релиз тут / Click here to add release
Рекомендованные обменники / Recommended file shares

> Finita - Above Chaos (2022), Gothic Metal
post Nov 22 2022, 17:28:01
Post #1

Правь статус, ####!111
**************
Group: Металариец
Posts: 5,724
Releases: 5240
From: Одесса
On Forums: 14 years 6 months
Thanks: 61412 time(s)
Ukraine


(IMG:http://metalarea.org/images/audiocovers/2022_Nov/acov_tid372753_thumb.jpg)

*Artist: Finita
*Album: Above Chaos
*Year: 2022
*Genre: Gothic Metal
*Country: Brazil (IMG:http://metalarea.org/forum/style_images/flags/Brazil.png)
*Format: mp3@CBR320kbps
*Size: 57MB

Tracklist:
1. Lucifer's Empire
2. Waltz of the Exhumed
3. God's Will
4. Aurora
5. Circle of the Damned
******************************
Total playing time: 23:39

Extended info
Line - up:

Allison - Bass
Portela - Guitars (ex-Human Plague)
Guilherme - Keyboards (Serpent Rise (live))
Luana - Vocals
Pablo de Castro - Drums (Apoteom, ex-Thy Devise, Harvest Moon, Tavares Brothers)




Technical info
(IMG:http://metalarea.org/images/spectrogram/2022_Nov/74edd08182001482a7bfc1c6a73a2115.png)
Input File: 02 - Valsa Dos Exumados.mp3
Channels : 2
Sample Rate : 44100
Precision : 16-bit
Duration : 00:05:41.00 = 15038100 samples = 25575 CDDA sectors
File Size : 13.7M
Bit Rate : 320k
Sample Encoding: MPEG audio (layer I, II or III)
Comments :
Title=Valsa Dos Exumados
Artist=Finita
Album=Above Chaos
Tracknumber=2
Year=2022
Genre=Gothic Metal



Register


Go to the top of the page
  Insert nick Quick quote
+Quote Post
 
Start new topic
Replies (1 - 4)
post Nov 24 2022, 12:37:56
Post #2

Мегаманьяк
***********
Group: Металариец
Posts: 1,638
Releases: 0
From: Russian Federation - St.Petersburg
On Forums: 13 years 9 months
Thanks: 464 time(s)
Russian Federation


Вокалистка однако впечатлила... (IMG:style_emoticons/default/17.gif) (IMG:style_emoticons/default/1488.gif)
Go to the top of the page
  Insert nick Quick quote
+Quote Post
post Nov 25 2022, 22:39:45
Post #3

Пять Литров
*****
Group: Металариец
Posts: 409
Releases: 1
On Forums: 15 years 7 months
Thanks: 39 time(s)
Russian Federation


ЦИТАТА(Olrak @ 24th November 2022 - 14:37:56) *
Вокалистка однако впечатлила...

пошел качаться и креститься одновременно?)))
Go to the top of the page
  Insert nick Quick quote
+Quote Post
post Nov 26 2022, 04:32:18
Post #4

Мегаманьяк
***********
Group: Металариец
Posts: 1,617
Releases: 0
From: д. Гадюкино
On Forums: 8 years 6 months
Thanks: 853 time(s)
Russian Federation


это EP.
Go to the top of the page
  Insert nick Quick quote
+Quote Post
post Nov 30 2022, 08:55:37
Post #5

Девять Литров
*********
Group: Металариец
Posts: 993
Releases: 49
From: Ивантеевка, Московская область
On Forums: 14 years 11 months
Thanks: 1088 time(s)
Russian Federation


Такая же фигня, что и последний EP.
Go to the top of the page
  Insert nick Quick quote
+Quote Post

Reply to this topicStart new topic
1 User(s) are reading this topic (1 Guests and 0 Anonymous Users)
0 Members:

 



- Lo-Fi Version Support form
Copyrights and abuse reports form
Time is now: 2nd December 2022 - 11:10:22