Welcome Guest ( Log In | Register )

> Releases Upload / Добавление релизов

Добавить релиз тут / Click here to add release
Рекомендованные обменники / Recommended file shares

> Ember Sun - Eleusis (2022), Funeral Doom Metal
post Nov 22 2022, 18:30:33
Post #1

...
**************
Group: Металариец
Posts: 5,134
Releases: 513
From: МОРсквы
On Forums: 16 years 1 month
Thanks: 7769 time(s)
Russian Federation


(IMG:https://metalarea.org/images/audiocovers/2022_Nov/acov_tid372754_thumb.jpg)

*Artist: Ember Sun
*Album: Eleusis
*Year: 2022
*Genre: Funeral Doom Metal
*Country: Greece (IMG:https://metalarea.org/forum/style_images/flags/Greece.png)
*Format: mp3@CBR320kbps
*Size: 166MB

Tracklist:
1.Eleusis 12:02
2.Goddess Of Deceit 08:17
3.The Nameless City 05:05
4.Through The Ages 10:44
5.The Elk 06:25
6.Rule The Offender 07:26
7.Un Dernier Adieu A L'eternite 07:36
8.Farewell 10:46
******************************
Total playing time: 1:08:21



Technical info
(IMG:https://metalarea.org/images/spectrogram/2022_Nov/9659cf83a0064930606a0a792b31434a.png)
Input File: Ember_Sun - Eleusis - 03 The Nameless City.mp3
Channels : 2
Sample Rate : 44100
Precision : 16-bit
Duration : 00:05:05.18 = 13458394 samples = 22888.4 CDDA sectors
File Size : 12.3M
Bit Rate : 324k
Sample Encoding: MPEG audio (layer I, II or III)
Comments :
Title=The Nameless City
Artist=Ember_Sun
Album=Eleusis
Tracknumber=3
Year=2022



Register


Go to the top of the page
  Insert nick Quick quote
+Quote Post
 
Start new topic
Replies (1 - 6)
post Nov 23 2022, 12:10:01
Post #2

Шесть Литров
******
Group: Металариец
Posts: 546
Releases: 0
On Forums: 4 years 10 months
Thanks: 177 time(s)
Belarus


Funeral Doom Metal? Скорее фестиваль электронной музыки.


Thanks:
Go to the top of the page
  Insert nick Quick quote
+Quote Post
post Nov 23 2022, 18:07:37
Post #3

Ледоруб
**************
Group: Металариец
Posts: 31,699
Releases: 0
From: Санкт-Петербург
On Forums: 13 years 2 months
Thanks: 11248 time(s)
Russian Federation


ЦИТАТА(GRAF @ 23rd November 2022 - 14:10:01) *
Скорее фестиваль электронной музыки.

А если я послушаю и проверю?
Go to the top of the page
  Insert nick Quick quote
+Quote Post
post Nov 23 2022, 19:13:52
Post #4

...
**************
Group: Металариец
Posts: 5,134
Releases: 513
From: МОРсквы
On Forums: 16 years 1 month
Thanks: 7769 time(s)
Russian Federation


Register
флак 816 мб.


Thanks:
(2) Kodel, valash,
Go to the top of the page
  Insert nick Quick quote
+Quote Post
post Nov 23 2022, 21:16:11
Post #5

Девять Литров
*********
Group: Металариец
Posts: 991
Releases: 0
From: Россия
On Forums: 14 years 4 months
Thanks: 553 time(s)
Russian Federation


ЦИТАТА(GRAF @ Nov 23 2022, 14:10:01) *
Funeral Doom Metal? Скорее фестиваль электронной музыки.

О, самое то, стало быть
Go to the top of the page
  Insert nick Quick quote
+Quote Post
post Nov 24 2022, 13:25:39
Post #6

Восемь Литров
********
Group: Металариец
Posts: 804
Releases: 0
From: Нижний Новгород
On Forums: 16 years 4 months
Thanks: 345 time(s)
Russian Federation


QUOTE(6666666 @ Nov 23 2022, 20:07:37) *
А если я послушаю и проверю?

Не знаю что имелось в виду, но ритм-секция записана в таком ... низком жёстком резиновом звуке. Возникают ассоциации с клубным миксом или где-то рядом.
Go to the top of the page
  Insert nick Quick quote
+Quote Post
post Nov 24 2022, 15:44:37
Post #7

Group: Подсевший
Posts: 15
Releases: 0
From: Рыгалово
On Forums: 1 month 4 weeks
Thanks: 5 time(s)
Unknown


Хороший альбом, но это скорее атмосферик, нежели фьюнерал. Очень сильная составляющая клавищ: почти все аранжировки идут через них, иногда гитарка пиликает. Если и фьюнерал, то очень лайтовый. Музыка звучит слишком эпично и размашисто. В целом приятно, еще бы чистого вокала не было - вообще бы отлично получилось. Надо переслушивать, однозначно.
Go to the top of the page
  Insert nick Quick quote
+Quote Post

Reply to this topicStart new topic
1 User(s) are reading this topic (1 Guests and 0 Anonymous Users)
0 Members:

 



- Lo-Fi Version Support form
Copyrights and abuse reports form
Time is now: 2nd December 2022 - 11:27:45