Welcome Guest ( Log In | Register )

> Releases Upload / Добавление релизов

Добавить релиз тут / Click here to add release
Рекомендованные обменники / Recommended file shares

> Smashed And Dissected - Insatiable Necrophilia (2022), Brutal Death Metal
post Nov 22 2022, 19:33:16
Post #1

Правь статус, ####!111
**************
Group: Металариец
Posts: 30,908
Releases: 22779
From: Г.Харьков
On Forums: 10 years 6 months
Thanks: 476810 time(s)
Unknown


(IMG:http://metalarea.org/images/audiocovers/2022_Nov/acov_tid372761_thumb.jpg)

*Artist: Smashed And Dissected
*Album: Insatiable Necrophilia
*Year: 2022
*Genre: Brutal Death Metal
*Country: Brazil (IMG:http://metalarea.org/forum/style_images/flags/Brazil.png)
*Format: mp3@CBR320kbps
*Size: 118MB

Tracklist:
1. After Trauma 08:13
2. Infection of Vomit 07:28
3. Insatiable Necrophilia 09:16
4. Worms Devoring Rotting Corpses 10:00
5. Critical Putrefaction 06:51 instrumental
6. Her Ghost in the Morgue 09:02
******************************
Total playing time: 50:50



Extended info
Sodomizer Vocals (harsh, clean), Bass, Guitars, Drum Programming (2018-present)
See also: Corruption of Soul, Eternal Necrosys, My Funeral Dream, Orgiastic Perversion, Rotting Paradise, ex-Blasphemous Sexfago, ex-Dark Profanation, ex-Defecation of Putrid Blood, ex-Moonlight Scream, ex-Morbidead, ex-Ócio, ex-Dark Malediction, ex-Libidinous Suspirus, ex-Social Hate, ex-Thirwërod, ex-Hell's Ambassador, ex-Black Serpent, ex-Sumatra


Technical info
(IMG:http://metalarea.org/images/spectrogram/2022_Nov/da71bdb7531c33b9d5053dc6c1e3811e.png)
Input File: Smashed and Dissected - Insatiable Necrophilia - 02. Infection of Vomit.mp3
Channels : 2
Sample Rate : 44100
Precision : 16-bit
Duration : 00:07:28.45 = 19776425 samples = 33633.4 CDDA sectors
File Size : 18.2M
Bit Rate : 325k
Sample Encoding: MPEG audio (layer I, II or III)
Comments :
Title=Infection of Vomit
Artist=Smashed and Dissected
Album=Insatiable Necrophilia
Tracknumber=2
Year=2022
Genre=Metal



Register

Register


Go to the top of the page
  Insert nick Quick quote
+Quote Post
 
Start new topic
Replies (1 - 2)
post Nov 23 2022, 11:12:38
Post #2

\m/
Group Icon
Group: S-moderation team
Posts: 8,074
Releases: 19
From: Петропавловск-Камчатский
On Forums: 13 years 5 months
Thanks: 8327 time(s)
Russian Federation


Added links by kefka
Go to the top of the page
  Insert nick Quick quote
+Quote Post
post Nov 24 2022, 09:43:29
Post #3

Мегаманьяк
***********
Group: Металариец
Posts: 1,947
Releases: 1
From: APATIN, SERBIA, АПАТИН, СЕРБИЯ
On Forums: 15 years 1 month
Thanks: 5735 time(s)



Flac

Register
Go to the top of the page
  Insert nick Quick quote
+Quote Post

Reply to this topicStart new topic
1 User(s) are reading this topic (1 Guests and 0 Anonymous Users)
0 Members:

 



- Lo-Fi Version Support form
Copyrights and abuse reports form
Time is now: 2nd December 2022 - 09:35:33