Welcome Guest ( Log In | Register )

> Releases Upload / Добавление релизов

Добавить релиз тут / Click here to add release
Рекомендованные обменники / Recommended file shares

> Void Alchemy - Traversing The Unseen Horizon (2022), Atmospheric Black Metal
post Nov 22 2022, 21:15:16
Post #1

Правь статус, 616
**************
Group: Металариец
Posts: 8,219
Releases: 6510
From: 55°35’N 38°08’E
On Forums: 14 years 4 months
Thanks: 118448 time(s)
Russian Federation


(IMG:https://metalarea.org/images/audiocovers/2022_Nov/acov_tid372763_thumb.jpg)

*Artist: Void Alchemy
*Album: Traversing The Unseen Horizon
*Year: 2022
*Genre: Atmospheric Black Metal
*Country: United States (IMG:https://metalarea.org/forum/style_images/flags/United%20States.png)
*Format: mp3@CBR320kbps
*Size: 122MB

Tracklist:
1.At the Eye of the Cosmic Cyclone 09:47
2.Nightside Voyages 10:29
3.Amongst the Endless Shadows 11:21
4.The Dark Procession 07:01
5.Traversing the Unseen Horizon 12:54
******************************
Total playing time: 51:32



Technical info
(IMG:https://metalarea.org/images/spectrogram/2022_Nov/098447a8e4c06728789975a2d7353c70.png)
Input File: 01 At the Eye of the Cosmic Cyclone.mp3
Channels : 2
Sample Rate : 44100
Precision : 16-bit
Duration : 00:09:47.63 = 25914659 samples = 44072.5 CDDA sectors
File Size : 23.6M
Bit Rate : 321k
Sample Encoding: MPEG audio (layer I, II or III)
Comments :
Title=At the Eye of the Cosmic Cyclone
Artist=Void Alchemy
Album=Traversing the Unseen Horizon
Tracknumber=1
Year=2022
Genre=Black Metal



Register


Go to the top of the page
  Insert nick Quick quote
+Quote Post
 
Start new topic
Replies (1 - 2)
post Nov 24 2022, 10:46:52
Post #2

Мегаманьяк
***********
Group: Металариец
Posts: 1,638
Releases: 0
From: Russian Federation - St.Petersburg
On Forums: 13 years 9 months
Thanks: 464 time(s)
Russian Federation


Кайфовый атмосферный думец! (IMG:style_emoticons/default/20.gif)
Go to the top of the page
  Insert nick Quick quote
+Quote Post
post Nov 24 2022, 19:10:57
Post #3

Common dweller of hell
**************
Group: Металариец
Posts: 4,491
Releases: 12
From: Dnipro
On Forums: 14 years 4 months
Thanks: 1778 time(s)
Ukraine


ЦИТАТА(Olrak @ Nov 24 2022, 11:46:52) *
Кайфовый атмосферный думец! (IMG:style_emoticons/default/20.gif)

Вроде и неплохо, но звук все портит (IMG:style_emoticons/default/6.gif)
Go to the top of the page
  Insert nick Quick quote
+Quote Post

Reply to this topicStart new topic
1 User(s) are reading this topic (1 Guests and 0 Anonymous Users)
0 Members:

 



- Lo-Fi Version Support form
Copyrights and abuse reports form
Time is now: 2nd December 2022 - 10:04:39