Welcome Guest ( Log In | Register )

> Releases Upload / Добавление релизов

Добавить релиз тут / Click here to add release
Рекомендованные обменники / Recommended file shares

 
Reply to this topicStart new topic
> Paramilitant - Emetic Spear Of Intolerance [demo] (2022), Black/Death Metal
post Nov 22 2022, 21:28:17
Post #1

Правь статус, 616
**************
Group: Металариец
Posts: 8,219
Releases: 6510
From: 55°35’N 38°08’E
On Forums: 14 years 4 months
Thanks: 118450 time(s)
Russian Federation


(IMG:https://metalarea.org/images/audiocovers/2022_Nov/acov_tid372764_thumb.jpg)

*Artist: Paramilitant
*Album: Emetic Spear Of Intolerance [demo]
*Year: 2022
*Genre: Black/Death Metal
*Country: Turkey (IMG:https://metalarea.org/forum/style_images/flags/Turkey.png)
*Format: mp3@CBR320kbps
*Size: 21MB

Tracklist:
1.Parasite Impalement 02:22
2.Cult of Primitive Obstruction 02:41
3.Rituals of Occult Blood 02:11
******************************
Total playing time: 7:14



Technical info
(IMG:https://metalarea.org/images/spectrogram/2022_Nov/9ad8c6421cf3131b9356dd4898e58c0f.png)
Input File: 01 Parasite Impalement.mp3
Channels : 2
Sample Rate : 44100
Precision : 16-bit
Duration : 00:02:22.64 = 6290380 samples = 10697.9 CDDA sectors
File Size : 5.83M
Bit Rate : 327k
Sample Encoding: MPEG audio (layer I, II or III)
Comments :
Title=Parasite Impalement
Artist=Paramilitant
Album=Emetic Spear of Intolerance
Tracknumber=1
Year=2022
Genre=Bestial Black Metal



Register


Go to the top of the page
  Insert nick Quick quote
+Quote Post

Reply to this topicStart new topic
1 User(s) are reading this topic (1 Guests and 0 Anonymous Users)
0 Members:

 



- Lo-Fi Version Support form
Copyrights and abuse reports form
Time is now: 2nd December 2022 - 10:20:12