Welcome Guest ( Log In | Register )

> Releases Upload / Добавление релизов

Добавить релиз тут / Click here to add release
Рекомендованные обменники / Recommended file shares

 
Reply to this topicStart new topic
> Nocturnal Effigy - Gaze Ov The Wampyr [demo] (2021), Raw Black Metal/Dungeon Synth
post Nov 22 2022, 21:47:18
Post #1

Правь статус, 616
**************
Group: Металариец
Posts: 8,219
Releases: 6510
From: 55°35’N 38°08’E
On Forums: 14 years 4 months
Thanks: 118451 time(s)
Russian Federation


(IMG:https://metalarea.org/images/audiocovers/2022_Nov/acov_tid372765_thumb.jpg)

*Artist: Nocturnal Effigy
*Album: Gaze Ov The Wampyr [demo]
*Year: 2021
*Genre: Raw Black Metal/Dungeon Synth
*Country: United States (IMG:https://metalarea.org/forum/style_images/flags/United%20States.png)
*Format: mp3@CBR320kbps
*Size: 106MB

Tracklist:
1.I 24:35
2.II 19:08
******************************
Total playing time: 43:43




Technical info
(IMG:https://metalarea.org/images/spectrogram/2022_Nov/ddb8fc443d9515ca198d7810fe4ab1f0.png)
Input File: 01 I.mp3
Channels : 2
Sample Rate : 44100
Precision : 16-bit
Duration : 00:24:35.40 = 65065228 samples = 110655 CDDA sectors
File Size : 59.2M
Bit Rate : 321k
Sample Encoding: MPEG audio (layer I, II or III)
Comments :
Title=I
Artist=Nocturnal Effigy
Album=Gaze Ov The Wampyr
Tracknumber=1
Year=2021
Genre=Other



Register


Go to the top of the page
  Insert nick Quick quote
+Quote Post

Reply to this topicStart new topic
1 User(s) are reading this topic (1 Guests and 0 Anonymous Users)
0 Members:

 



- Lo-Fi Version Support form
Copyrights and abuse reports form
Time is now: 2nd December 2022 - 10:33:57