Welcome Guest ( Log In | Register )

> Releases Upload / Добавление релизов

Добавить релиз тут / Click here to add release
Рекомендованные обменники / Recommended file shares

 
Reply to this topicStart new topic
> Fffiiixxx - Die Gef​ä​hrlichkeit Der Angeklagten (2022), Death Metal
post Nov 22 2022, 22:10:41
Post #1

Правь статус, ####!111
**************
Group: Металариец
Posts: 30,908
Releases: 22779
From: Г.Харьков
On Forums: 10 years 6 months
Thanks: 476821 time(s)
Unknown


(IMG:http://metalarea.org/images/audiocovers/2022_Nov/acov_tid372766_thumb.jpg)

*Artist: Fffiiixxx
*Album: Die Gef​ä​hrlichkeit Der Angeklagten
*Year: 2022
*Genre: Death Metal
*Country: Germany (IMG:http://metalarea.org/forum/style_images/flags/Germany.png)
*Format: mp3@CBR320kbps
*Size: 64MB

Tracklist:
1. Star Bowels 02:46
2. The Dull Teeth 03:29
3. Pest Blossom 02:57
4. The Endeavour of Larvae I 01:53
5. In Fever I Widen the Hole 03:58
6. No Mouth 01:39
7. The Endeavour of Larvae II 04:22
8. Smiles & Vertigo 06:05
******************************
Total playing time: 27:09



Technical info
(IMG:http://metalarea.org/images/spectrogram/2022_Nov/3e2ad98020892e5914530bf861d4d5d5.png)
Input File: FFFIIIXXX - Die Gefährlichkeit der Angeklagten - 07 The Endeavour Of Larvae II.mp3
Channels : 2
Sample Rate : 44100
Precision : 16-bit
Duration : 00:04:22.83 = 11590891 samples = 19712.4 CDDA sectors
File Size : 10.8M
Bit Rate : 328k
Sample Encoding: MPEG audio (layer I, II or III)
Comments :
Title=The Endeavour Of Larvae II
Artist=FFFIIIXXX
Album=Die Gefährlichkeit der Angeklagten
Tracknumber=7
Year=2022



Register


Go to the top of the page
  Insert nick Quick quote
+Quote Post

Reply to this topicStart new topic
1 User(s) are reading this topic (1 Guests and 0 Anonymous Users)
0 Members:

 



- Lo-Fi Version Support form
Copyrights and abuse reports form
Time is now: 2nd December 2022 - 10:49:33