Welcome Guest ( Log In | Register )

> Releases Upload / Добавление релизов

Добавить релиз тут / Click here to add release
Рекомендованные обменники / Recommended file shares

 
Reply to this topicStart new topic
> Suino Nekrosatanico - Rituais [ep] (2022), Grindcore
post Nov 23 2022, 00:17:26
Post #1

Group: Дух
Posts: 4
Releases: 2
On Forums: 13 years 5 months
Thanks: 12 time(s)
Russian Federation


(IMG:http://metalarea.org/images/audiocovers/2022_Nov/acov_tid372767_thumb.png)

*Artist: Suino Nekrosatanico
*Album: Rituais [ep]
*Year: 2022
*Genre: Grindcore
*Country: Brazil (IMG:http://metalarea.org/forum/style_images/flags/Brazil.png)
*Format: mp3@CBR320kbps
*Size: 14MB

Tracklist:
1. Ritual I - Profanação Suína 01:33
2. Ritual II - Invocação Ancestral da Porco-Divinidade 01:18
3. Ritual III - Fundamentos do Nekrosatanismo 01:37
4. Ritual IV - Invocação Ancestral da Porco-Divinidade (Edição Xamânica) 01:21
******************************
Total playing time: 5:49



(IMG:http://metalarea.org/images/youtube.png)


Extended info
The new "Suino Nekrosatanico" EP "Rituals" is here! And yes, it contains 4 different rituals for you to practice, praise, invoke and oblate Suino Nekrosatanico in all his gory glory!!!


Technical info
(IMG:http://metalarea.org/images/spectrogram/2022_Nov/5c38f01fb1f81d12c3f09a82c71f4385.png)
Input File: 01. Ritual I - Profanação Suína.mp3
Channels : 2
Sample Rate : 44100
Precision : 16-bit
Duration : 00:01:33.60 = 4127804 samples = 7020.07 CDDA sectors
File Size : 3.74M
Bit Rate : 320k
Sample Encoding: MPEG audio (layer I, II or III)
Comments :
Title=Ritual I - Profanacao Suina
Artist=Suino Nekrosatanico
Album=Rituais
Tracknumber=01
Year=2022
Genre=Grindcore



Register


Thanks:
Go to the top of the page
  Insert nick Quick quote
+Quote Post

Reply to this topicStart new topic
1 User(s) are reading this topic (1 Guests and 0 Anonymous Users)
0 Members:

 



- Lo-Fi Version Support form
Copyrights and abuse reports form
Time is now: 2nd December 2022 - 11:04:42