Welcome Guest ( Log In | Register )

> Releases Upload / Добавление релизов

Добавить релиз тут / Click here to add release
Рекомендованные обменники / Recommended file shares

 
Reply to this topicStart new topic
> Incarcerated - Incarcerated [ep] (2022), Thrash/Death Metal (D6)
post Nov 23 2022, 04:27:15
Post #1

Правь статус, ####!111
**************
Group: Металариец
Posts: 4,111
Releases: 2553
On Forums: 12 years 2 weeks
Thanks: 46982 time(s)
Russian Federation


(IMG:https://metalarea.org/images/audiocovers/2022_Nov/acov_tid372769_thumb.jpg)

*Artist: Incarcerated
*Album: Incarcerated [ep]
*Year: 2022
*Genre: Thrash/Death Metal
*Country: United Kingdom (IMG:https://metalarea.org/forum/style_images/flags/United%20Kingdom.png)
*Format: mp3@CBR320kbps
*Size: 43MB

Tracklist:
1.Incarcerated 04:57
2.Lapidation 04:07
3.I Wanna See Blood 03:37
4.God's Archetype 06:19
******************************
Total playing time: 19:00



Technical info
(IMG:https://metalarea.org/images/spectrogram/2022_Nov/d1c7d085596d24b5bd303f8656b14b8c.png)
Input File: 03 - I Wanna See Blood.mp3
Channels : 2
Sample Rate : 44100
Precision : 16-bit
Duration : 00:03:37.54 = 9593338 samples = 16315.2 CDDA sectors
File Size : 8.83M
Bit Rate : 325k
Sample Encoding: MPEG audio (layer I, II or III)
Comments :
Title=I Wanna See Blood
Artist=Incarcerated
Album=Incarcerated
Tracknumber=03
Year=2022
Genre=Thrash Metal



Register


Go to the top of the page
  Insert nick Quick quote
+Quote Post

Reply to this topicStart new topic
1 User(s) are reading this topic (1 Guests and 0 Anonymous Users)
0 Members:

 



- Lo-Fi Version Support form
Copyrights and abuse reports form
Time is now: 2nd December 2022 - 11:35:41