Welcome Guest ( Log In | Register )

> Releases Upload / Добавление релизов

Добавить релиз тут / Click here to add release
Рекомендованные обменники / Recommended file shares

 
Reply to this topicStart new topic
> L'angoisse - Лимб [ep] (2022), Post-Black Metal
post Nov 23 2022, 05:07:34
Post #1

Правь статус, ####!111
**************
Group: Металариец
Posts: 4,111
Releases: 2553
On Forums: 12 years 2 weeks
Thanks: 46975 time(s)
Russian Federation


(IMG:https://metalarea.org/images/audiocovers/2022_Nov/acov_tid372770_thumb.jpg)

*Artist: L'angoisse
*Album: Лимб [ep]
*Year: 2022
*Genre: Post-Black Metal
*Country: Russian Federation (IMG:https://metalarea.org/forum/style_images/flags/Russian%20Federation.png)
*Format: mp3@CBR320kbps
*Size: 44MB

Tracklist:
01.Идол 06:37
02.Лимб 05:56
03.Анергия 06:26
******************************
Total playing time: 18:59

Preview 1

Technical info
(IMG:https://metalarea.org/images/spectrogram/2022_Nov/3adc05ab537f3648a7b981b120a1d4f5.png)
Input File: 02 Лимб.mp3
Channels : 2
Sample Rate : 44100
Precision : 16-bit
Duration : 00:05:57.09 = 15747625 samples = 26781.7 CDDA sectors
File Size : 14.3M
Bit Rate : 320k
Sample Encoding: MPEG audio (layer I, II or III)
Comments :
Title=Лимб
Artist=L'angoisse
Album=Лимб
Tracknumber=02
Year=2022
Genre=Post-Black Metal



Register


Go to the top of the page
  Insert nick Quick quote
+Quote Post

Reply to this topicStart new topic
1 User(s) are reading this topic (1 Guests and 0 Anonymous Users)
0 Members:

 



- Lo-Fi Version Support form
Copyrights and abuse reports form
Time is now: 2nd December 2022 - 10:40:01