Welcome Guest ( Log In | Register )

> Releases Upload / Добавление релизов

Добавить релиз тут / Click here to add release
Рекомендованные обменники / Recommended file shares

> Wolflust - Endless War [ep] (2022), Death/Black Metal
post Nov 23 2022, 06:21:58
Post #1

Правь статус, ####!111
**************
Group: Металариец
Posts: 4,111
Releases: 2553
On Forums: 12 years 2 weeks
Thanks: 46981 time(s)
Russian Federation


(IMG:https://metalarea.org/images/audiocovers/2022_Nov/acov_tid372771_thumb.jpg)

*Artist: Wolflust
*Album: Endless War [ep]
*Year: 2022
*Genre: Death/Black Metal
*Country: Brazil (IMG:https://metalarea.org/forum/style_images/flags/Brazil.png)
*Format: mp3@CBR320kbps
*Size: 40MB

Tracklist:
1.Intro 01:54
2.Destroyer: Vengeance of the Blackened Beast 02:36
3.Satanic Lust (Sarcofago) 03:03
4.Unmerciful Shattered Dawn 02:49
5.Total War (WAR) 02:43
6.Blasphemer (Sodom) 03:16
******************************
Total playing time: 16:21



Technical info
(IMG:https://metalarea.org/images/spectrogram/2022_Nov/bdd62bd0ce516c12dbca951ab57517f6.png)
Input File: 02 - Destroyer Vengeance of the Blackened Beast.mp3
Channels : 2
Sample Rate : 44100
Precision : 16-bit
Duration : 00:02:36.46 = 6899842 samples = 11734.4 CDDA sectors
File Size : 6.48M
Bit Rate : 331k
Sample Encoding: MPEG audio (layer I, II or III)
Comments :
Title=Destroyer Vengeance of the Blackened Beast
Artist=Wolflust
Album=Endless War
Tracknumber=02
Year=2022
Genre=Black/ Death Metal
Discnumber=01



Register


Go to the top of the page
  Insert nick Quick quote
+Quote Post
 
Start new topic
Replies (1 - 1)
post Nov 23 2022, 11:22:00
Post #2

Правь статус, ####!111
**************
Group: Металариец
Posts: 4,111
Releases: 2553
On Forums: 12 years 2 weeks
Thanks: 46981 time(s)
Russian Federation


FLAC 123MB
Register


Thanks:
Go to the top of the page
  Insert nick Quick quote
+Quote Post

Reply to this topicStart new topic
1 User(s) are reading this topic (1 Guests and 0 Anonymous Users)
0 Members:

 



- Lo-Fi Version Support form
Copyrights and abuse reports form
Time is now: 2nd December 2022 - 10:57:09