Welcome Guest ( Log In | Register )

> Releases Upload / Добавление релизов

Добавить релиз тут / Click here to add release
Рекомендованные обменники / Recommended file shares

 
Reply to this topicStart new topic
> Forbidden Crypt - Demo [demo] (2017), Black/Death Metal
post Nov 23 2022, 06:56:47
Post #1

Девять Литров
*********
Group: Металариец
Posts: 990
Releases: 258
On Forums: 3 years 6 months
Thanks: 4356 time(s)
Russian Federation


(IMG:https://metalarea.org/images/audiocovers/2022_Nov/acov_tid372772_thumb.jpg)

*Artist: Forbidden Crypt
*Album: Demo [demo]
*Year: 2017
*Genre: Black/Death Metal
*Country: Germany (IMG:https://metalarea.org/forum/style_images/flags/Germany.png)
*Format: mp3@CBR320kbps
*Size: 15MB

Tracklist:
1. Into the Forbidden Crypt 03:28
2. I am the destroyer 03:15
******************************
Total playing time: 6:43


(IMG:https://metalarea.org/images/youtube.png)

Technical info
(IMG:https://metalarea.org/images/spectrogram/2022_Nov/9099161f50dde41be6f34b513d24170b.png)
Input File: 01 Into the Forbidden Crypt.mp3
Channels : 2
Sample Rate : 44100
Precision : 16-bit
Duration : 00:03:28.63 = 9200363 samples = 15646.9 CDDA sectors
File Size : 8.50M
Bit Rate : 326k
Sample Encoding: MPEG audio (layer I, II or III)
Comments :
Title=Into the Forbidden Crypt
Artist=Forbidden Crypt
Album=Demo
Tracknumber=1
Year=2017



Register


Go to the top of the page
  Insert nick Quick quote
+Quote Post

Reply to this topicStart new topic
1 User(s) are reading this topic (1 Guests and 0 Anonymous Users)
0 Members:

 



- Lo-Fi Version Support form
Copyrights and abuse reports form
Time is now: 2nd December 2022 - 11:11:00