Welcome Guest ( Log In | Register )

> Releases Upload / Добавление релизов

Добавить релиз тут / Click here to add release
Рекомендованные обменники / Recommended file shares

 
Reply to this topicStart new topic
> Abysmal Daemon - Blasphemous Rites [demo] (2022), Death/Black Metal
post Nov 23 2022, 08:03:06
Post #1

Правь статус, ####!111
**************
Group: Металариец
Posts: 4,111
Releases: 2553
On Forums: 12 years 2 weeks
Thanks: 46982 time(s)
Russian Federation


(IMG:https://metalarea.org/images/audiocovers/2022_Nov/acov_tid372773_thumb.jpg)

*Artist: Abysmal Daemon
*Album: Blasphemous Rites [demo]
*Year: 2022
*Genre: Death/Black Metal
*Country: United States (IMG:https://metalarea.org/forum/style_images/flags/United%20States.png)
*Format: mp3@CBR320kbps
*Size: 18MB

Tracklist:
1.Among The Dead 02:32
2.Blasphemous Rites 01:56
3.Temple of Darkness 03:21
******************************
Total playing time: 7:49



Technical info
(IMG:https://metalarea.org/images/spectrogram/2022_Nov/a9e099f2b31a4dd23744b991e88df635.png)
Input File: 02 Blasphemous Rites.mp3
Channels : 2
Sample Rate : 44100
Precision : 16-bit
Duration : 00:01:56.57 = 5140605 samples = 8742.53 CDDA sectors
File Size : 4.79M
Bit Rate : 329k
Sample Encoding: MPEG audio (layer I, II or III)
Comments :
Title=Blasphemous Rites
Artist=Abysmal Daemon
Album=Blasphemous Rites
Tracknumber=02
Year=2022
Genre=Death/Black Metal



Register


Go to the top of the page
  Insert nick Quick quote
+Quote Post

Reply to this topicStart new topic
1 User(s) are reading this topic (1 Guests and 0 Anonymous Users)
0 Members:

 



- Lo-Fi Version Support form
Copyrights and abuse reports form
Time is now: 2nd December 2022 - 11:28:53