Welcome Guest ( Log In | Register )

> Releases Upload / Добавление релизов

Добавить релиз тут / Click here to add release
Рекомендованные обменники / Recommended file shares

 
Reply to this topicStart new topic
> Vodoem - Seasons Of Silence (2022), Post-Black Metal
post Nov 23 2022, 11:20:38
Post #1

Правь статус, ####!111
**************
Group: Металариец
Posts: 30,908
Releases: 22779
From: Г.Харьков
On Forums: 10 years 6 months
Thanks: 476823 time(s)
Unknown


(IMG:http://metalarea.org/images/audiocovers/2022_Nov/acov_tid372774_thumb.jpg)

*Artist: Vodoem
*Album: Seasons Of Silence
*Year: 2022
*Genre: Post-Black Metal
*Country: United States (IMG:http://metalarea.org/forum/style_images/flags/United%20States.png)
*Format: mp3@CBR320kbps
*Size: 129MB

Tracklist:
1. Autumn Dwellers 17:17
2. Seasons of Silence I 11:07
3. Wintersleep 16:18
4. Seasons of Silence II 11:29
******************************
Total playing time: 56:11



Extended info
Dima Eam Everything
See also: Elusive Arizona, ex-7.9, ex-Aeris


Technical info
(IMG:http://metalarea.org/images/spectrogram/2022_Nov/89c40f3e7934302cabf735af3f9362dd.png)
Input File: 03 - Wintersleep.mp3
Channels : 2
Sample Rate : 44100
Precision : 16-bit
Duration : 00:16:18.00 = 43129800 samples = 73350 CDDA sectors
File Size : 39.3M
Bit Rate : 321k
Sample Encoding: MPEG audio (layer I, II or III)
Comments :
Title=Wintersleep
Artist=Vodoem
Album=Seasons of Silence
Tracknumber=3
Year=2022-11-22
Genre=Metal
Discnumber=1



Register


Go to the top of the page
  Insert nick Quick quote
+Quote Post

Reply to this topicStart new topic
1 User(s) are reading this topic (1 Guests and 0 Anonymous Users)
0 Members:

 



- Lo-Fi Version Support form
Copyrights and abuse reports form
Time is now: 2nd December 2022 - 11:39:45