Welcome Guest ( Log In | Register )

> Releases Upload / Добавление релизов

Добавить релиз тут / Click here to add release
Рекомендованные обменники / Recommended file shares

 
Reply to this topicStart new topic
> Esse - Letanías Al Verdugo (2022), Melodic Black Metal
post Nov 23 2022, 11:23:18
Post #1

Правь статус, ####!111
**************
Group: Металариец
Posts: 4,106
Releases: 2553
On Forums: 12 years 1 week
Thanks: 46966 time(s)
Russian Federation


(IMG:https://metalarea.org/images/audiocovers/2022_Nov/acov_tid372775_thumb.jpg)

*Artist: Esse
*Album: Letanías Al Verdugo
*Year: 2022
*Genre: Melodic Black Metal
*Country: Colombia (IMG:https://metalarea.org/forum/style_images/flags/Colombia.png)
*Format: mp3@CBR320kbps
*Size: 63MB

Tracklist:
01.Prefacio 02:08
02.Letanías al Verdugo 04:26
03.Falsos Augures 05:53
04.Epitafios 00:39
05.Linaje Absolutista 04:19
06.Impius Domine 04:23
07.Hijos del Mar 04:54
08.Epílogo 00:43
******************************
Total playing time: 27:25

(IMG:https://metalarea.org/images/youtube.png)

Technical info
(IMG:https://metalarea.org/images/spectrogram/2022_Nov/a8fcb67dcf0a15a98b455cabbf238fc8.png)
Input File: 05 - Linaje Absolutista.mp3
Channels : 2
Sample Rate : 44100
Precision : 16-bit
Duration : 00:04:19.00 = 11421900 samples = 19425 CDDA sectors
File Size : 10.5M
Bit Rate : 324k
Sample Encoding: MPEG audio (layer I, II or III)
Comments :
Title=Linaje Absolutista
Artist=Esse
Album=Letanías al Verdugo
Tracknumber=5
Year=2022-11-15
Genre=Alternative
Discnumber=1



Register


Go to the top of the page
  Insert nick Quick quote
+Quote Post

Reply to this topicStart new topic
1 User(s) are reading this topic (1 Guests and 0 Anonymous Users)
0 Members:

 



- Lo-Fi Version Support form
Copyrights and abuse reports form
Time is now: 2nd December 2022 - 09:29:54