Welcome Guest ( Log In | Register )

> Releases Upload / Добавление релизов

Добавить релиз тут / Click here to add release
Рекомендованные обменники / Recommended file shares

> Black Lava - Soul Furnace (2022), Black Metal
post Nov 23 2022, 12:47:31
Post #1

Правь статус, ####!111
**************
Group: Металариец
Posts: 30,908
Releases: 22779
From: Г.Харьков
On Forums: 10 years 6 months
Thanks: 476810 time(s)
Unknown


(IMG:http://metalarea.org/images/audiocovers/2022_Nov/acov_tid372776_thumb.jpg)

*Artist: Black Lava
*Album: Soul Furnace
*Year: 2022
*Genre: Black Metal
*Country: Australia (IMG:http://metalarea.org/forum/style_images/flags/Australia.png)
*Format: mp3@CBR320kbps
*Size: 80MB

Tracklist:
01. Origins
02. Aurora
03. Black Blizzard
04. Baptised in Ice
05. Eye of the Moon
06. Northern Dawn
07. Necrocatacomb
08. Nightshade
09. Soul Furnace
******************************
Total playing time: 33:56




Extended info
Dan Presland (drums)
Ben Boyle (guitar)
Rob Watkins (Vocals)
Tim Anderson (bass)



Technical info
(IMG:http://metalarea.org/images/spectrogram/2022_Nov/dc5146e5ac804df5f80cc5d2b2581d7c.png)
Input File: 05. Eye of the Moon.mp3
Channels : 2
Sample Rate : 44100
Precision : 16-bit
Duration : 00:04:10.03 = 11026499 samples = 18752.5 CDDA sectors
File Size : 10.3M
Bit Rate : 329k
Sample Encoding: MPEG audio (layer I, II or III)
Comments :
Title=Eye of the Moon
Artist=Black Lava
Album=Soul Furnace
Tracknumber=5
Year=2022
Genre=Black Metal



Register


Go to the top of the page
  Insert nick Quick quote
+Quote Post
 
Start new topic
Replies (1 - 9)
post Nov 24 2022, 11:25:36
Post #2

Мегаманьяк
***********
Group: Металариец
Posts: 1,947
Releases: 1
From: APATIN, SERBIA, АПАТИН, СЕРБИЯ
On Forums: 15 years 1 month
Thanks: 5735 time(s)



320

Register


Go to the top of the page
  Insert nick Quick quote
+Quote Post
post Nov 24 2022, 19:12:54
Post #3

Common dweller of hell
**************
Group: Металариец
Posts: 4,490
Releases: 12
From: Dnipro
On Forums: 14 years 4 months
Thanks: 1778 time(s)
Ukraine


Чёт какая то солянка, сильно приправленная black 'n' roll
Go to the top of the page
  Insert nick Quick quote
+Quote Post
post Nov 25 2022, 05:45:51
Post #4

Правь статус, ####!111
**************
Group: Металариец
Posts: 30,908
Releases: 22779
From: Г.Харьков
On Forums: 10 years 6 months
Thanks: 476810 time(s)
Unknown


FLAC (Tracks) 267 mb
Register


Thanks:
(2) musvital, nemx,
Go to the top of the page
  Insert nick Quick quote
+Quote Post
post Nov 25 2022, 13:45:19
Post #5

Два Литра
**
Group: Завсегдатай
Posts: 148
Releases: 5
On Forums: 8 years 9 months
Thanks: 167 time(s)
Serbia


нажористая солянка, сильно приправленная blackened hardcore и замешанная Куртом Балу
Go to the top of the page
  Insert nick Quick quote
+Quote Post
post Nov 25 2022, 14:48:42
Post #6

Восемь Литров
********
Group: Металариец
Posts: 815
Releases: 0
From: Лыткарино
On Forums: 3 years 6 months
Thanks: 224 time(s)
Russian Federation


Занимательная вещь, но блэка здесь примерно половина). Вокал почти весь скандирование харшевое, скрима как такового нет.
Go to the top of the page
  Insert nick Quick quote
+Quote Post
post Nov 27 2022, 19:50:18
Post #7

Шесть Литров
******
Group: Металариец
Posts: 610
Releases: 0
From: Ташкент
On Forums: 14 years 9 months
Thanks: 191 time(s)
Uzbekistan


Плевать, как этот стиль обозвать, но звучит всё вкусно и продуманно.
Go to the top of the page
  Insert nick Quick quote
+Quote Post
post Nov 27 2022, 21:46:36
Post #8

Group: Подсевший
Posts: 26
Releases: 0
On Forums: 3 weeks 3 hours
Thanks: 6 time(s)
Unknown


Black Lava - такая ведь песня у Satyricon была. Интересно, есть ли связь. Музыкально - на мой слух, есть отголоски, и это отлично, звучит очень круто.
Альбом понравился, реализация на высоком уровне. Буду ли слушать в дальнейшем? Скорее всего да.
Go to the top of the page
  Insert nick Quick quote
+Quote Post
post Nov 28 2022, 23:03:30
Post #9

Пять Литров
*****
Group: Металариец
Posts: 493
Releases: 0
On Forums: 13 years 10 months
Thanks: 388 time(s)
Brazil


На Сатирикон похоже? (IMG:style_emoticons/default/1488.gif)
Go to the top of the page
  Insert nick Quick quote
+Quote Post
post Nov 29 2022, 12:25:39
Post #10
BAN
RO till
Dec 7 2022, 19:26:25



На мутотень похоже.
Go to the top of the page
  Insert nick Quick quote
+Quote Post

Reply to this topicStart new topic
2 User(s) are reading this topic (2 Guests and 0 Anonymous Users)
0 Members:

 



- Lo-Fi Version Support form
Copyrights and abuse reports form
Time is now: 2nd December 2022 - 09:48:54